<?xml version="1.0" standalone="no"?>
<!DOCTYPE svg PUBLIC "-//W3C//DTD SVG 1.1//EN" "http://www.w3.org/Graphics/SVG/1.1/DTD/svg11.dtd" >
<svg xmlns="http://www.w3.org/2000/svg" xmlns:xlink="http://www.w3.org/1999/xlink" version="1.1">
<metadata>
Created by FontForge 20170731 at Tue Aug 25 20:05:48 2020
 By Aleksey,,,
Copyright (c) 2008 by Jos Buivenga. All rights reserved.
</metadata>
<defs>
<font id="MuseoSans-900" horiz-adv-x="831" >
  <font-face 
    font-family="Museo Sans 900"
    font-weight="700"
    font-stretch="normal"
    units-per-em="2048"
    panose-1="2 0 0 0 0 0 0 0 0 0"
    ascent="1536"
    descent="-512"
    x-height="1055"
    cap-height="1464"
    bbox="-266 -430 2499 1880"
    underline-thickness="102"
    underline-position="-307"
    unicode-range="U+0020-FB04"
  />
<missing-glyph horiz-adv-x="1044" 
d="M10 0v1434h1024v-1434h-1024zM522 809l348 522h-696zM584 717l348 -522v1044zM113 195l348 522l-348 522v-1044zM174 102h696l-348 523z" />
    <glyph glyph-name="f_f" unicode="ff" horiz-adv-x="1572" 
d="M983 0v778h-432v-778h-354v778h-129v277h129v24q0 99 35 173.5t85.5 115t120 65.5t126 32.5t116.5 7.5q28 0 54.5 -1.5t39.5 -3.5l12 -2v-299q-24 4 -57 4q-178 0 -178 -102v-14h432v24q0 99 35 173.5t85.5 115t120 65.5t126 32.5t116.5 7.5q28 0 54.5 -1.5t39.5 -3.5
l13 -2v-299q-24 4 -57 4q-179 0 -179 -102v-14h195v-277h-195v-778h-354z" />
    <glyph glyph-name="fi" unicode="fi" horiz-adv-x="1402" 
d="M918 0v778h-367v-778h-354v778h-129v277h129v24q0 99 35 173.5t85.5 115t120 65.5t126 32.5t116.5 7.5q28 0 54.5 -1.5t39.5 -3.5l12 -2v-299q-24 4 -57 4q-178 0 -178 -102v-14h721v-1055h-354zM922 1188v276h346v-276h-346z" />
    <glyph glyph-name="fl" unicode="fl" horiz-adv-x="1447" 
d="M197 0v760h-129v276h129v43q0 99 35 173.5t85.5 115t120 65.5t126 32.5t116.5 7.5q28 0 54.5 -1.5t39.5 -3.5l12 -2v-299q-24 4 -57 4q-178 0 -178 -102v-33h194v-276h-194v-760h-354zM903 389v1075h354v-1028q0 -77 20 -106t79 -29l43 2v-307q-50 -6 -107 -6
q-45 0 -81.5 3.5t-77.5 14t-73 28t-62.5 48t-50.5 71.5t-32 100.5t-12 133.5z" />
    <glyph glyph-name="f_f_i" unicode="ffi" horiz-adv-x="2189" 
d="M983 0v778h-432v-778h-354v778h-129v277h129v24q0 99 35 173.5t85.5 115t120 65.5t126 32.5t116.5 7.5q28 0 54.5 -1.5t39.5 -3.5l12 -2v-299q-24 4 -57 4q-178 0 -178 -102v-14h432v24q0 99 35 173.5t85.5 115t120 65.5t126 32.5t116.5 7.5q28 0 54.5 -1.5t39.5 -3.5
l13 -2v-299q-24 4 -57 4q-179 0 -179 -102v-14h721v-1055h-354v778h-367v-778h-354zM1708 1188v276h346v-276h-346z" />
    <glyph glyph-name="f_f_l" unicode="ffl" horiz-adv-x="2234" 
d="M983 0v778h-432v-778h-354v778h-129v277h129v24q0 99 35 173.5t85.5 115t120 65.5t126 32.5t116.5 7.5q28 0 54.5 -1.5t39.5 -3.5l12 -2v-299q-24 4 -57 4q-178 0 -178 -102v-14h432v24q0 99 35 173.5t85.5 115t120 65.5t126 32.5t116.5 7.5q28 0 54.5 -1.5t39.5 -3.5
l13 -2v-299q-24 4 -57 4q-179 0 -179 -102v-14h195v-277h-195v-778h-354zM1690 389v1075h354v-1028q0 -77 19.5 -106t78.5 -29l43 2v-307q-49 -6 -106 -6q-45 0 -81.5 3.5t-77.5 14t-73 28t-62.5 48t-50.5 71.5t-32 100.5t-12 133.5z" />
    <glyph glyph-name="f_j" unicode="fj" horiz-adv-x="1402" 
d="M197 0v778h-129v277h129v24q0 99 35 173.5t85.5 115t120 65.5t126 32.5t116.5 7.5q28 0 54.5 -1.5t39.5 -3.5l12 -2v-299q-24 4 -57 4q-178 0 -178 -102v-14h721v-1082q0 -73 -19 -133.5t-50 -101t-75 -71t-87.5 -48t-94.5 -28t-90.5 -14t-79.5 -3.5q-25 0 -48.5 1.5
t-34.5 2.5l-11 2v295q18 -2 45 -2q32 0 60.5 5t60.5 17.5t51 41.5t19 71v770h-367v-778h-354zM922 1188v276h346v-276h-346z" />
    <glyph glyph-name=".notdef" horiz-adv-x="1044" 
d="M10 0v1434h1024v-1434h-1024zM522 809l348 522h-696zM584 717l348 -522v1044zM113 195l348 522l-348 522v-1044zM174 102h696l-348 523z" />
    <glyph glyph-name=".null" horiz-adv-x="0" 
 />
    <glyph glyph-name="nonmarkingreturn" horiz-adv-x="682" 
 />
    <glyph glyph-name="space" unicode=" " horiz-adv-x="468" 
 />
    <glyph glyph-name="exclam" unicode="!" horiz-adv-x="749" 
d="M223 453l-33 1011h369l-33 -1011h-303zM213 0v307h324v-307h-324z" />
    <glyph glyph-name="quotedbl" unicode="&#x22;" horiz-adv-x="845" 
d="M494 1004v491h249v-491h-249zM102 1004v491h250v-491h-250z" />
    <glyph glyph-name="numbersign" unicode="#" horiz-adv-x="1431" 
d="M207 0l63 369h-207l41 245h207l35 195h-203l41 246h203l72 409h274l-71 -409h221l71 409h275l-72 -409h215l-41 -246h-215l-35 -195h211l-41 -245h-211l-63 -369h-275l64 369h-221l-64 -369h-274zM586 614h221l35 195h-221z" />
    <glyph glyph-name="dollar" unicode="$" horiz-adv-x="1212" 
d="M80 184l188 273q7 -6 19 -16.5t50.5 -36.5t78 -46t95 -36.5t107.5 -16.5q64 0 109 28t45 89q0 29 -28.5 55.5t-75.5 48t-107 48t-122 53.5t-122 67.5t-107 86.5t-75.5 113t-28.5 146q0 168 109 286t283 151v192h223v-186q70 -8 134.5 -27.5t106 -41.5t73.5 -43t47 -35
l14 -13l-152 -293q-6 5 -17 14t-46 31t-70.5 39t-88 31t-101.5 14q-63 0 -109.5 -29t-46.5 -86q0 -28 22.5 -52t61 -44t88.5 -40t105 -43t110.5 -49.5t105.5 -63.5t88.5 -81.5t61 -106t22.5 -134.5q0 -168 -109 -292t-300 -154v-187h-223v187q-76 11 -146.5 35.5t-118 52
t-83.5 53t-53 42.5z" />
    <glyph glyph-name="percent" unicode="%" horiz-adv-x="1744" 
d="M430 782q-155 0 -263 102.5t-108 250.5q0 146 108.5 250t262.5 104q153 0 262 -104.5t109 -249.5q0 -147 -108.5 -250t-262.5 -103zM141 0l1131 1464h311l-1130 -1464h-312zM430 1028q46 0 79.5 32t33.5 77q0 43 -33.5 74.5t-79.5 31.5t-79.5 -31.5t-33.5 -74.5
q0 -45 33.5 -77t79.5 -32zM934 328q0 146 108.5 250t262.5 104q153 0 261.5 -104.5t108.5 -249.5q0 -148 -108 -250.5t-262 -102.5q-155 0 -263 102.5t-108 250.5zM1192 330q0 -45 33.5 -77t79.5 -32t79 32t33 77q0 43 -33 74.5t-79 31.5t-79.5 -31.5t-33.5 -74.5z" />
    <glyph glyph-name="ampersand" unicode="&#x26;" horiz-adv-x="1441" 
d="M80 424q0 114 64.5 210.5t168.5 139.5v4q-7 3 -18.5 10t-41 33t-52.5 58.5t-41.5 90t-18.5 124.5q0 83 27 150.5t73 112t108.5 75t131.5 44t144 13.5q47 0 100 -6.5t82 -12.5l29 -6l-82 -280q-37 8 -80 8q-74 0 -122 -39t-48 -113q0 -59 39.5 -100t109.5 -41h178v180h353
v-180h182v-307h-182v-141q0 -99 -37.5 -185t-107 -151t-176.5 -102.5t-238 -37.5q-245 0 -395 128.5t-150 320.5zM446 446q0 -60 52 -102.5t127 -42.5q98 0 152 47.5t54 122.5v121h-200q-80 0 -132.5 -34.5t-52.5 -111.5z" />
    <glyph glyph-name="quotesingle" unicode="'" horiz-adv-x="460" 
d="M102 1004v491h256v-491h-256z" />
    <glyph glyph-name="parenleft" unicode="(" horiz-adv-x="688" 
d="M373 -195q-254 402 -254 906q0 433 254 825h291q-232 -388 -232 -825q0 -465 232 -906h-291z" />
    <glyph glyph-name="parenright" unicode=")" horiz-adv-x="688" 
d="M315 -195h-290q231 439 231 906q0 439 -231 825h290q254 -392 254 -825q0 -504 -254 -906z" />
    <glyph glyph-name="asterisk" unicode="*" horiz-adv-x="946" 
d="M358 633l-249 180l153 170v4l-225 47l94 293l209 -92l-23 229h312l-25 -229l211 94l96 -293l-227 -47v-4l156 -170l-250 -182l-115 198h-4z" />
    <glyph glyph-name="plus" unicode="+" horiz-adv-x="1286" 
d="M84 455v266h420v457h278v-457h420v-266h-420v-455h-278v455h-420z" />
    <glyph glyph-name="comma" unicode="," horiz-adv-x="589" 
d="M12 -227l154 567h338l-232 -567h-260z" />
    <glyph glyph-name="hyphen" unicode="-" horiz-adv-x="917" 
d="M137 434v307h643v-307h-643z" />
    <glyph glyph-name="period" unicode="." horiz-adv-x="573" 
d="M119 0v336h336v-336h-336z" />
    <glyph glyph-name="slash" unicode="/" horiz-adv-x="888" 
d="M43 -86l524 1622h295l-524 -1622h-295z" />
    <glyph glyph-name="zero" unicode="0" horiz-adv-x="1310" 
d="M655 -25q-122 0 -217 39t-157 107t-102.5 165.5t-57.5 207.5t-17 241t17 240.5t57.5 206t102.5 163.5t157 105.5t217 38.5t217 -38.5t157 -105.5t102.5 -163.5t57.5 -206t17 -240.5t-17 -241t-57.5 -207.5t-102.5 -165.5t-157 -107t-217 -39zM655 303q183 0 183 432
q0 426 -183 426q-182 0 -182 -426q0 -432 182 -432z" />
    <glyph glyph-name="one" unicode="1" horiz-adv-x="1136" 
d="M115 0v307h311v611l2 112h-4q-18 -41 -57 -78l-88 -80l-207 222l395 370h309v-1157h314v-307h-975z" />
    <glyph glyph-name="two" unicode="2" horiz-adv-x="1230" 
d="M115 0q-17 97 -17 158q0 110 35 205.5t90.5 163t123 125.5t135.5 103t123.5 84.5t90.5 82t35 84.5q0 71 -47 108t-111 37q-39 0 -75.5 -16t-61 -39t-43.5 -46t-28 -39l-9 -16l-266 179q3 7 8.5 18t27 44t47.5 62.5t70 66t94 62.5t120.5 44t148.5 18q93 0 180 -27
t159.5 -80t116.5 -141.5t44 -200.5q0 -93 -32.5 -174t-85 -139t-115.5 -108t-127 -89.5t-117 -74.5t-87 -72.5t-36 -75.5h622v-307h-1013z" />
    <glyph glyph-name="three" unicode="3" horiz-adv-x="1202" 
d="M61 168l172 276q5 -5 15 -14t42 -31.5t65.5 -40t82.5 -31.5t97 -14q96 0 152 42t56 104q0 83 -73.5 122.5t-198.5 39.5h-102l-76 174l192 231q31 37 63 71.5t48 50.5l16 15v4q-47 -10 -139 -10h-350v307h924v-223l-297 -342q161 -35 257.5 -152t96.5 -272q0 -96 -34 -184
t-99 -159.5t-171 -114t-239 -42.5q-92 0 -177 20t-141.5 48.5t-99.5 56.5t-63 48z" />
    <glyph glyph-name="four" unicode="4" horiz-adv-x="1318" 
d="M53 354v217l565 893h439v-813h174v-297h-174v-354h-355v354h-649zM418 651h284v328q0 36 3 77t7 64l3 23h-4q-31 -91 -72 -152l-221 -336v-4z" />
    <glyph glyph-name="five" unicode="5" horiz-adv-x="1196" 
d="M78 168l172 276q5 -5 15 -14t42 -31.5t65 -40t81 -31.5t94 -14q80 0 142.5 48t62.5 133q0 84 -66 133t-168 49q-50 0 -99 -12t-73 -24l-24 -13l-191 71l59 766h820v-307h-508l-8 -135q0 -13 -2 -27t-4 -22l-3 -8h4q52 14 107 14q127 0 228 -38t165 -104t97.5 -152.5
t33.5 -186.5q0 -228 -152 -375.5t-390 -147.5q-91 0 -175.5 20t-141 48.5t-100 56.5t-63.5 48z" />
    <glyph glyph-name="six" unicode="6" horiz-adv-x="1267" 
d="M688 -25q-114 0 -218 43.5t-189 127t-136 221t-51 309.5q0 120 28.5 237t87 221t140.5 183t196.5 125.5t246.5 46.5q91 0 172 -16t116 -32l35 -16l-96 -307q-97 43 -201 43q-122 0 -200.5 -66t-114.5 -175h4q27 19 88.5 35t112.5 16q111 0 203 -43t151.5 -114t92 -160.5
t32.5 -184.5q0 -75 -21 -146.5t-64 -134.5t-102 -110.5t-140 -75t-173 -27.5zM688 303q65 0 106.5 48.5t41.5 115.5q0 88 -56 151.5t-166 63.5q-151 0 -151 -88q0 -124 71.5 -207.5t153.5 -83.5z" />
    <glyph glyph-name="seven" unicode="7" horiz-adv-x="1161" 
d="M133 0l514 1026q23 44 46.5 77.5t35.5 44.5l12 11v4q-20 -6 -94 -6h-577v307h1050v-250l-614 -1214h-373z" />
    <glyph glyph-name="eight" unicode="8" horiz-adv-x="1275" 
d="M90 430q0 53 17.5 106t40.5 90.5t55 73.5t51 53.5t39 32.5q-133 116 -133 281q0 82 29.5 156t87 134.5t154 96t220.5 35.5q138 0 249 -48.5t179 -146t68 -229.5q0 -150 -143 -334q172 -119 172 -309q0 -68 -21.5 -132t-66 -121.5t-107.5 -100.5t-153 -68t-195 -25
q-104 0 -193 25t-152.5 68t-108.5 101t-67 124t-22 137zM809 440q0 14 -4 26.5t-14.5 25t-20.5 22.5t-29 22t-32.5 20t-39.5 21t-41.5 20t-46 21t-46.5 21q-78 -82 -78 -178q0 -71 51.5 -120.5t124.5 -49.5q83 0 129.5 39t46.5 110zM510 1059q0 -35 17 -63.5t54 -53.5
t71 -42t93 -42q52 100 52 180q0 62 -41.5 99t-112.5 37q-66 0 -99.5 -32.5t-33.5 -82.5z" />
    <glyph glyph-name="nine" unicode="9" horiz-adv-x="1267" 
d="M475 -25q-91 0 -172 16t-116 32l-35 16l96 307q97 -43 201 -43q122 0 200 66t115 176h-4q-24 -20 -86 -35.5t-115 -15.5q-111 0 -203 42.5t-151.5 113.5t-92 160.5t-32.5 184.5q0 75 21 146.5t64 134.5t102 110.5t140 75t173 27.5q114 0 218 -43.5t189 -127t136 -221
t51 -309.5q0 -120 -28.5 -237t-87 -221t-140.5 -183t-196.5 -125.5t-246.5 -46.5zM653 782q152 0 152 88q0 124 -71.5 207.5t-153.5 83.5q-65 0 -106.5 -48.5t-41.5 -115.5q0 -88 55.5 -151.5t165.5 -63.5z" />
    <glyph glyph-name="colon" unicode=":" horiz-adv-x="614" 
d="M139 719v336h336v-336h-336zM139 0v336h336v-336h-336z" />
    <glyph glyph-name="semicolon" unicode=";" horiz-adv-x="618" 
d="M170 719v336h324v-336h-324zM27 -227l133 567h340l-211 -567h-262z" />
    <glyph glyph-name="less" unicode="&#x3c;" horiz-adv-x="1292" 
d="M123 479v219l1032 457v-297l-676 -268v-4l676 -267v-296z" />
    <glyph glyph-name="equal" unicode="=" horiz-adv-x="1323" 
d="M143 690v266h1037v-266h-1037zM143 219v266h1037v-266h-1037z" />
    <glyph glyph-name="greater" unicode="&#x3e;" horiz-adv-x="1292" 
d="M137 23v296l676 267v4l-676 268v297l1032 -457v-219z" />
    <glyph glyph-name="question" unicode="?" horiz-adv-x="1026" 
d="M252 453v102q0 56 17.5 105t46 84.5t62.5 67.5t68.5 60t63 55t46 59t17.5 67q0 52 -42.5 86.5t-102.5 34.5q-44 0 -92.5 -22t-75.5 -44l-27 -23l-196 240q6 7 18 18.5t53.5 40.5t87.5 51.5t119 41t150 18.5q70 0 137.5 -16t129 -49.5t108.5 -80t74.5 -112.5t27.5 -143
q0 -68 -19.5 -127t-50 -101t-68 -79t-75 -67.5t-68 -59.5t-50 -63t-19.5 -71v-73h-340zM260 0v307h324v-307h-324z" />
    <glyph glyph-name="at" unicode="@" horiz-adv-x="1771" 
d="M90 489q0 160 61.5 302.5t167.5 245.5t256 163t320 60q132 0 237 -26t174 -70.5t114.5 -107.5t65 -134t19.5 -154v-406h152v-243h-580q-111 0 -201.5 32t-147 85t-86.5 119t-30 137q0 69 29.5 132.5t85 115t146.5 82t204 30.5h101q0 61 -85.5 96t-191.5 35
q-97 0 -184.5 -42.5t-148.5 -111.5t-96.5 -158.5t-35.5 -181.5q0 -99 34 -186.5t97.5 -155.5t163 -107.5t221.5 -39.5v-266q-197 0 -360.5 58.5t-272.5 160.5t-169 240t-60 296zM963 500q0 -60 35 -99t100 -39h80v275h-76q-67 0 -103 -39t-36 -98z" />
    <glyph glyph-name="A" unicode="A" horiz-adv-x="1355" 
d="M995 0l-90 307h-456l-89 -307h-368l497 1464h377l498 -1464h-369zM680 1130h-4q-33 -159 -60 -251l-84 -285h289l-82 285q-12 41 -27 103.5t-24 105.5z" />
    <glyph glyph-name="B" unicode="B" horiz-adv-x="1349" 
d="M172 0v1464h539q226 0 361.5 -99.5t135.5 -283.5q0 -95 -44.5 -180t-125.5 -131v-4q117 -36 173.5 -128.5t56.5 -201.5q0 -93 -30 -167.5t-82 -124t-123.5 -82.5t-151.5 -47.5t-170 -14.5h-539zM530 897h185q64 0 96.5 39t32.5 96q0 55 -33.5 90t-101.5 35h-179v-260z
M530 307h215q74 0 115 44.5t41 109.5t-39 107t-114 42h-218v-303z" />
    <glyph glyph-name="C" unicode="C" horiz-adv-x="1474" 
d="M72 735q0 157 58.5 297t160 240t244.5 158.5t305 58.5q101 0 195 -21.5t155.5 -51.5t108.5 -60.5t69 -51.5l21 -22l-166 -270q-7 6 -19 16t-51.5 36t-80 45.5t-100 35.5t-116.5 16q-102 0 -183 -35.5t-130 -95t-75 -133t-26 -154.5q0 -83 27.5 -160.5t78 -140.5
t130.5 -101t178 -38q62 0 125 18.5t108 45t82 53t55 44.5l19 19l185 -262q-8 -10 -24.5 -26.5t-73 -59t-119.5 -75t-164.5 -59t-208.5 -26.5q-225 0 -401 99.5t-271.5 272t-95.5 388.5z" />
    <glyph glyph-name="D" unicode="D" horiz-adv-x="1527" 
d="M172 0v1464h520q349 0 552.5 -193t203.5 -536t-204 -539t-552 -196h-520zM530 307h148q189 0 294 110t105 318q0 205 -106.5 313.5t-292.5 108.5h-148v-850z" />
    <glyph glyph-name="E" unicode="E" horiz-adv-x="1204" 
d="M172 0v1464h918v-307h-560v-266h447v-307h-447v-277h588v-307h-946z" />
    <glyph glyph-name="F" unicode="F" horiz-adv-x="1124" 
d="M172 0v1464h897v-307h-539v-307h447v-307h-447v-543h-358z" />
    <glyph glyph-name="G" unicode="G" horiz-adv-x="1576" 
d="M74 735q0 158 58 297.5t158.5 240t244 158.5t307.5 58q105 0 201.5 -20t159.5 -48.5t111 -57.5t70 -49l21 -20l-172 -268q-6 5 -17.5 14.5t-48 32.5t-76 41t-98 32.5t-116.5 14.5q-111 0 -196.5 -33.5t-136 -92t-75.5 -131t-25 -156.5q0 -102 33.5 -187t91 -140.5
t134 -86.5t161.5 -31q48 0 96.5 11t83 26.5t62 31.5t41.5 27l14 11v112h-207v305h525v-827h-299v41l2 61h-4q-6 -5 -17 -13.5t-48.5 -30.5t-79 -39t-107 -30.5t-133.5 -13.5q-141 0 -270.5 52.5t-229.5 147t-159.5 240.5t-59.5 320z" />
    <glyph glyph-name="H" unicode="H" horiz-adv-x="1593" 
d="M172 0v1464h358v-585h533v585h358v-1464h-358v573h-533v-573h-358z" />
    <glyph glyph-name="I" unicode="I" horiz-adv-x="702" 
d="M172 0v1464h358v-1464h-358z" />
    <glyph glyph-name="J" unicode="J" horiz-adv-x="1177" 
d="M43 451v106h358v-78q0 -79 29 -123q34 -53 107 -53q59 0 94 39.5t35 116.5v698h-394v307h752v-1013q0 -116 -42 -209.5t-112 -150t-157 -86.5t-181 -30t-180.5 30.5t-156 88t-111 150t-41.5 207.5z" />
    <glyph glyph-name="K" unicode="K" horiz-adv-x="1417" 
d="M172 0v1464h358v-565h148l303 565h385l-395 -700v-4l418 -760h-402l-309 594h-148v-594h-358z" />
    <glyph glyph-name="L" unicode="L" horiz-adv-x="1153" 
d="M172 0v1464h358v-1157h598v-307h-956z" />
    <glyph glyph-name="M" unicode="M" horiz-adv-x="1849" 
d="M127 0l121 1464h389l213 -618q15 -42 33.5 -102.5t29.5 -99.5l11 -40h4q40 148 73 242l213 618h390l118 -1464h-358l-45 659q-4 49 -4 110.5t2 98.5l2 37h-4q-49 -154 -82 -246l-154 -423h-307l-154 423l-81 246h-5q8 -135 0 -246l-45 -659h-360z" />
    <glyph glyph-name="N" unicode="N" horiz-adv-x="1581" 
d="M172 0v1464h363l405 -684q25 -43 56 -105.5t49 -103.5l18 -41h4q-16 158 -16 250v684h358v-1464h-360l-408 682q-25 43 -56 105.5t-49 103.5l-18 41h-4q16 -158 16 -250v-682h-358z" />
    <glyph glyph-name="O" unicode="O" horiz-adv-x="1675" 
d="M72 741q0 155 58 293.5t158.5 238.5t243.5 158t306 58t306 -58t243.5 -158t158.5 -238.5t58 -293.5q0 -213 -98.5 -388t-274.5 -276.5t-393 -101.5t-393 101.5t-274.5 276.5t-98.5 388zM442 741q0 -186 115.5 -312t280.5 -126t280 126t115 312q0 179 -115 299.5
t-280 120.5q-166 0 -281 -120.5t-115 -299.5z" />
    <glyph glyph-name="P" unicode="P" horiz-adv-x="1298" 
d="M172 0v1464h608q213 0 345 -140.5t132 -362.5q0 -223 -132.5 -365.5t-344.5 -142.5h-250v-453h-358zM530 760h177q91 0 138.5 55t47.5 146q0 90 -46.5 143t-133.5 53h-183v-397z" />
    <glyph glyph-name="Q" unicode="Q" horiz-adv-x="1695" 
d="M72 741q0 155 58 293.5t158.5 238.5t243.5 158t306 58t306 -58t243.5 -158t158.5 -238.5t58 -293.5q0 -225 -146 -434l154 -125l-203 -227l-149 141q-185 -121 -422 -121q-217 0 -393 101.5t-274.5 276.5t-98.5 388zM442 741q0 -186 115.5 -312t280.5 -126q94 0 159 33
l-149 131l201 227l145 -141q39 89 39 188q0 179 -115 299.5t-280 120.5q-166 0 -281 -120.5t-115 -299.5z" />
    <glyph glyph-name="R" unicode="R" horiz-adv-x="1402" 
d="M172 0v1464h510q199 0 285 -34q127 -48 198.5 -158.5t71.5 -267.5q0 -124 -57.5 -235.5t-161.5 -164.5v-4q20 -27 55 -88l285 -512h-400l-260 494h-168v-494h-358zM530 801h156q87 0 136.5 46.5t49.5 133.5q0 90 -46.5 133t-174.5 43h-121v-356z" />
    <glyph glyph-name="S" unicode="S" horiz-adv-x="1187" 
d="M63 184l189 273q7 -6 19 -16.5t50.5 -36.5t78 -46t95 -36.5t107.5 -16.5q64 0 109 28t45 89q0 35 -36.5 65t-94.5 55.5t-128.5 53.5t-141 67t-128.5 87.5t-94.5 123t-36.5 166.5q0 199 148 324t370 125q88 0 169 -17t133.5 -41.5t92.5 -49t58 -41.5l18 -17l-151 -293
q-6 5 -17 14t-46 31t-71 39t-88.5 31t-101.5 14q-63 0 -109 -29t-46 -86q0 -37 36.5 -67t94.5 -54.5t128 -51t140.5 -64t128.5 -85t94.5 -123t36.5 -169.5q0 -92 -35 -174t-99 -145t-163 -99.5t-219 -36.5q-96 0 -186.5 21.5t-151 52.5t-107.5 61.5t-69 51.5z" />
    <glyph glyph-name="T" unicode="T" horiz-adv-x="1263" 
d="M453 0v1157h-445v307h1247v-307h-444v-1157h-358z" />
    <glyph glyph-name="U" unicode="U" horiz-adv-x="1527" 
d="M152 539v925h358v-925q0 -114 68 -175t186 -61t186 61t68 175v925h358v-925q0 -164 -75 -292t-214 -200t-321 -72q-277 0 -445.5 157t-168.5 407z" />
    <glyph glyph-name="V" unicode="V" horiz-adv-x="1382" 
d="M506 0l-518 1464h389l258 -833q13 -41 26.5 -100t20.5 -97l8 -39h4q27 144 56 236l262 833h383l-516 -1464h-373z" />
    <glyph glyph-name="W" unicode="W" horiz-adv-x="2043" 
d="M399 0l-356 1464h377l184 -915q8 -40 12.5 -78.5t5.5 -56.5l1 -19h4q1 64 24 154l226 915h288l219 -915q10 -40 16.5 -78.5t7.5 -56.5l1 -19h4q1 64 19 154l200 915h371l-371 -1464h-399l-184 739q-10 42 -17.5 85t-9.5 65l-2 22h-4q-6 -78 -29 -172l-184 -739h-404z" />
    <glyph glyph-name="X" unicode="X" horiz-adv-x="1382" 
d="M33 0l444 727l-446 737h407l160 -301q22 -41 44.5 -88t33.5 -73l12 -27h4q39 94 90 188l162 301h408l-449 -737l447 -727h-400l-168 307q-23 41 -45.5 86.5t-33.5 70.5l-11 25h-4q-39 -90 -90 -182l-168 -307h-397z" />
    <glyph glyph-name="Y" unicode="Y" horiz-adv-x="1308" 
d="M475 0v600l-483 864h407l166 -352q21 -44 43 -97t34 -83l11 -31h4q41 111 88 211l164 352h408l-483 -864v-600h-359z" />
    <glyph glyph-name="Z" unicode="Z" horiz-adv-x="1306" 
d="M78 0v225l565 801q28 40 56.5 73t42.5 47l14 13v4q-47 -6 -113 -6h-539v307h1106v-221l-567 -805q-28 -40 -56.5 -73.5t-42.5 -46.5l-14 -13v-4q47 6 113 6h578v-307h-1143z" />
    <glyph glyph-name="bracketleft" unicode="[" horiz-adv-x="757" 
d="M174 -195v1731h504v-246h-209v-1239h209v-246h-504z" />
    <glyph glyph-name="backslash" unicode="\" horiz-adv-x="888" 
d="M551 -86l-524 1622h295l524 -1622h-295z" />
    <glyph glyph-name="bracketright" unicode="]" horiz-adv-x="757" 
d="M80 51h209v1239h-209v246h504v-1731h-504v246z" />
    <glyph glyph-name="asciicircum" unicode="^" horiz-adv-x="1290" 
d="M119 494l416 970h219l415 -970h-297l-229 614l-227 -614h-297z" />
    <glyph glyph-name="underscore" unicode="_" horiz-adv-x="1273" 
d="M27 0h1220v-266h-1220v266z" />
    <glyph glyph-name="grave" unicode="`" horiz-adv-x="991" 
d="M479 1559l-241 307h350l166 -307h-275z" />
    <glyph glyph-name="a" unicode="a" horiz-adv-x="1146" 
d="M51 315q0 63 26 115.5t66.5 87t97.5 61t112.5 41t117.5 23.5t106.5 11.5t86.5 2.5h14v19q0 117 -156 117q-59 0 -130 -25.5t-112 -50.5l-42 -25l-123 250q7 6 21 15t59.5 32.5t94 41.5t121.5 33t146 15q223 0 349 -114.5t126 -315.5v-649h-323v63l4 66h-4
q-3 -6 -9.5 -16.5t-32 -37t-56.5 -47t-85 -37t-116 -16.5q-152 0 -255.5 93.5t-103.5 246.5zM408 334q0 -39 25 -63.5t75 -24.5q67 0 120.5 59.5t53.5 126.5v23h-33q-61 0 -113 -11.5t-90 -39.5t-38 -70z" />
    <glyph glyph-name="b" unicode="b" horiz-adv-x="1304" 
d="M131 0v1464h354v-407l-4 -90h4q4 5 12 12.5t35 26.5t57.5 34t79.5 27t101 12q214 0 344.5 -153t130.5 -400t-138.5 -399t-352.5 -152q-55 0 -104.5 12.5t-82 30t-56.5 34.5t-35 30l-11 12h-4q2 -26 2 -59v-35h-332zM475 520q0 -103 54.5 -177.5t152.5 -74.5
q87 0 147 67.5t60 184.5q0 118 -57 189t-150 71q-87 0 -147 -66t-60 -194z" />
    <glyph glyph-name="c" unicode="c" horiz-adv-x="1128" 
d="M53 528q0 107 39.5 205.5t112 176t185.5 123.5t251 46q80 0 153 -16.5t119.5 -39.5t81.5 -46.5t51 -40.5l15 -16l-150 -238q-4 4 -12 11t-33 24.5t-52.5 31t-68 24.5t-81.5 11q-119 0 -185.5 -75t-66.5 -177q0 -103 69.5 -182.5t194.5 -79.5q65 0 137.5 32t112.5 64
l39 31l129 -247q-6 -7 -18.5 -19t-56 -42t-92 -53t-126 -42t-160.5 -19q-137 0 -250 45.5t-186 122t-112.5 176t-39.5 209.5z" />
    <glyph glyph-name="d" unicode="d" horiz-adv-x="1304" 
d="M59 528q0 248 134.5 399.5t347.5 151.5q60 0 110 -8.5t79.5 -21t50 -25t28.5 -20.5l8 -9h4q-2 20 -2 47v422h355v-1464h-332v70l2 59h-4l-11 -16.5t-34 -37t-59 -47t-86 -37t-115 -16.5q-214 0 -345 153t-131 400zM416 528q0 -118 57 -189t150 -71q87 0 146.5 66
t59.5 194q0 103 -54 177.5t-152 74.5q-87 0 -147 -67.5t-60 -184.5z" />
    <glyph glyph-name="e" unicode="e" horiz-adv-x="1153" 
d="M55 528q0 155 65.5 279.5t191.5 198t292 73.5q228 0 358 -142t130 -368l-9 -110h-665q19 -92 87.5 -140.5t158.5 -48.5q68 0 140.5 27t111.5 53l38 27l131 -248q-7 -6 -20 -16.5t-57.5 -37t-93 -47t-124.5 -37t-155 -16.5q-137 0 -249 46.5t-183 124.5t-109.5 176.5
t-38.5 205.5zM426 662h309q0 62 -39 106.5t-100 44.5q-71 0 -113 -42.5t-57 -108.5z" />
    <glyph glyph-name="f" unicode="f" horiz-adv-x="786" 
d="M197 0v760h-129v276h129v43q0 99 35 173.5t85.5 115t120 65.5t126 32.5t116.5 7.5q28 0 54.5 -1.5t39.5 -3.5l12 -2v-299q-24 4 -57 4q-178 0 -178 -102v-33h194v-276h-194v-760h-354z" />
    <glyph glyph-name="g" unicode="g" horiz-adv-x="1288" 
d="M262 -68q15 -8 41 -19t104 -29.5t152 -18.5q108 0 176 47.5t68 155.5v34l2 39h-4q-91 -110 -264 -110q-115 0 -207.5 44.5t-150 119.5t-88 169t-30.5 197t30 194.5t87 164.5t149 116t208 43q54 0 103.5 -10.5t81 -25.5t56 -30t34.5 -25l11 -11h6q-2 12 -2 24v54h332v-959
q0 -112 -34.5 -202.5t-92 -149.5t-135.5 -99t-161 -57.5t-173 -17.5q-103 0 -211.5 26.5t-187.5 67.5zM621 326q81 0 135.5 52.5t54.5 178.5q0 67 -16.5 113.5t-47 70t-64.5 33.5t-77 10q-91 0 -139.5 -58.5t-48.5 -152.5q0 -106 51.5 -176.5t151.5 -70.5z" />
    <glyph glyph-name="h" unicode="h" horiz-adv-x="1302" 
d="M131 0v1464h354v-463l-4 -90h4q44 78 131 123t191 45q83 0 149.5 -20.5t119.5 -65t81.5 -123t28.5 -186.5v-684h-355v618q0 73 -28.5 106.5t-87.5 33.5q-79 0 -133 -42t-78 -114q-19 -56 -19 -135v-467h-354z" />
    <glyph glyph-name="i" unicode="i" horiz-adv-x="616" 
d="M135 1188v276h346v-276h-346zM131 0v1055h354v-1055h-354z" />
    <glyph glyph-name="j" unicode="j" horiz-adv-x="616" 
d="M135 1188v276h346v-276h-346zM131 1055h354v-1082q0 -73 -19 -133.5t-50 -101t-74.5 -71t-87.5 -48t-94.5 -28t-90 -14t-79.5 -3.5q-25 0 -48.5 1.5t-34.5 2.5l-11 2v295q18 -2 45 -2q32 0 60 5t60 17.5t51 41.5t19 71v1047z" />
    <glyph glyph-name="k" unicode="k" horiz-adv-x="1226" 
d="M131 0v1464h354v-757h101l209 348h385l-310 -480v-4l353 -571h-404l-223 410h-111v-410h-354z" />
    <glyph glyph-name="l" unicode="l" horiz-adv-x="661" 
d="M117 389v1075h354v-1028q0 -77 19.5 -106t78.5 -29l43 2v-307q-49 -6 -106 -6q-45 0 -81.5 3.5t-77.5 14t-73 28t-62.5 48t-50.5 71.5t-32 100.5t-12 133.5z" />
    <glyph glyph-name="m" unicode="m" horiz-adv-x="1880" 
d="M131 0v1055h340v-92l-4 -66h4q121 182 313 182q101 0 177.5 -45t117.5 -133h4q46 73 136.5 125.5t201.5 52.5q156 0 249 -94.5t93 -300.5v-684h-354v625q0 65 -17.5 99t-64.5 34q-155 0 -194 -199q-9 -42 -9 -123v-436h-354v625q0 65 -17.5 99t-64.5 34q-150 0 -192 -191
q-11 -54 -11 -131v-436h-354z" />
    <glyph glyph-name="n" unicode="n" horiz-adv-x="1302" 
d="M131 0v1055h340v-92l-4 -66h4q45 76 127.5 129t208.5 53q83 0 149.5 -20.5t119.5 -65t81.5 -123t28.5 -186.5v-684h-355v618q0 73 -28.5 106.5t-87.5 33.5q-80 0 -132.5 -40.5t-76.5 -111.5q-21 -62 -21 -139v-467h-354z" />
    <glyph glyph-name="o" unicode="o" horiz-adv-x="1302" 
d="M53 524q0 122 47 226.5t127 176t189.5 112t232.5 40.5q167 0 303 -68.5t216.5 -196.5t80.5 -290q0 -161 -80.5 -287.5t-216 -194t-301.5 -67.5t-301.5 67.5t-216 194t-80.5 287.5zM412 524q0 -115 69.5 -184.5t169.5 -69.5t170 69.5t70 184.5q0 117 -70 188.5t-170 71.5
t-169.5 -71.5t-69.5 -188.5z" />
    <glyph glyph-name="p" unicode="p" horiz-adv-x="1304" 
d="M131 -410v1465h320v-54l-5 -67h5q4 6 12 15.5t36.5 34.5t62 44.5t90 35t118.5 15.5q214 0 344.5 -153t130.5 -400t-138.5 -399t-352.5 -152q-48 0 -93.5 10.5t-76 25t-54 29.5t-34.5 26l-11 10h-4q4 -37 4 -90v-396h-354zM475 520q0 -103 54.5 -177.5t152.5 -74.5
q87 0 147 67.5t60 184.5q0 118 -57 189t-150 71q-87 0 -147 -66t-60 -194z" />
    <glyph glyph-name="q" unicode="q" horiz-adv-x="1304" 
d="M59 528q0 248 134.5 399.5t347.5 151.5q60 0 113 -11.5t85.5 -28t57 -33t35.5 -28.5l10 -11h4q-4 22 -4 57v31h332v-1465h-355v414l4 90h-4q-4 -5 -11 -13t-33.5 -28.5t-56.5 -36t-79.5 -28.5t-103.5 -13q-214 0 -345 153t-131 400zM416 528q0 -118 57 -189t150 -71
q87 0 146.5 66t59.5 194q0 103 -54 177.5t-152 74.5q-87 0 -147 -67.5t-60 -184.5z" />
    <glyph glyph-name="r" unicode="r" horiz-adv-x="880" 
d="M131 0v1055h340v-178l-4 -66h4q35 111 128 186.5t208 75.5l41 -4v-348q-29 6 -72 6q-37 0 -72 -7t-75.5 -25t-73.5 -57t-51 -95q-19 -62 -19 -144v-399h-354z" />
    <glyph glyph-name="s" unicode="s" horiz-adv-x="964" 
d="M49 131l152 238q5 -4 13.5 -11.5t37 -26t58 -32.5t73 -25.5t86.5 -11.5q44 0 74 12t30 37q0 16 -21 31.5t-56 28.5t-79 31t-90.5 37.5t-90.5 50t-79 66.5t-56 88t-21 114q0 146 123 233.5t311 87.5q69 0 132.5 -12.5t105 -30.5t73 -35.5t45.5 -30.5l15 -12l-121 -251
l-12 9t-33.5 21t-53 26t-69 20.5t-82.5 9.5q-44 0 -74 -13t-30 -39q0 -14 21 -27.5t56 -25.5t79 -29t90.5 -36t90.5 -49t79 -65t56 -87t21 -113q0 -141 -117.5 -237.5t-314.5 -96.5q-74 0 -144.5 16t-118.5 39t-85.5 46t-55.5 39z" />
    <glyph glyph-name="t" unicode="t" horiz-adv-x="849" 
d="M184 389v371h-135v276h146v303h344v-303h221v-276h-221v-324q0 -42 19 -71t50.5 -41.5t59.5 -17.5t59 -5l47 2v-307q-39 -6 -96 -6q-41 0 -80.5 3.5t-90.5 14t-94.5 28t-86.5 48t-73.5 71t-49.5 101t-19 133.5z" />
    <glyph glyph-name="u" unicode="u" horiz-adv-x="1292" 
d="M117 371v684h354v-619q0 -139 113 -139q109 0 166 82.5t57 208.5v467h354v-1055h-340v92l4 66h-4q-42 -84 -132 -133.5t-197 -49.5q-82 0 -147.5 20.5t-118 65.5t-81 123.5t-28.5 186.5z" />
    <glyph glyph-name="v" unicode="v" horiz-adv-x="1150" 
d="M360 0l-364 1055h373l163 -561q9 -30 18.5 -76t15.5 -76l5 -31h4q19 113 39 183l162 561h375l-358 -1055h-433z" />
    <glyph glyph-name="w" unicode="w" horiz-adv-x="1720" 
d="M322 0l-295 1055h372l131 -623q5 -25 8.5 -52.5t3.5 -42.5l1 -15h4q4 53 18 110l146 623h303l145 -623q6 -25 10.5 -52.5t5.5 -42.5l1 -15h4q2 53 14 110l131 623h369l-295 -1055h-395l-119 487q-6 25 -11.5 53.5t-7.5 43.5l-2 16h-4q-6 -56 -20 -113l-119 -487h-399z
" />
    <glyph glyph-name="x" unicode="x" horiz-adv-x="1142" 
d="M31 0l331 522l-339 533h399l115 -236l32 -69h4q21 42 33 69l115 236h399l-338 -533l332 -522h-389l-127 238l-25 53h-4q-14 -35 -24 -53l-125 -238h-389z" />
    <glyph glyph-name="y" unicode="y" horiz-adv-x="1118" 
d="M2 -356l113 260q57 -39 108 -39q126 0 170 106l21 49l-449 1035h402l155 -486q8 -25 18 -66t16 -69l5 -28h4q21 100 35 157l133 492h387l-432 -1168q-62 -165 -181 -241t-259 -76q-62 0 -123.5 18.5t-92.5 37.5z" />
    <glyph glyph-name="z" unicode="z" horiz-adv-x="1112" 
d="M70 0v176l387 486q24 29 47 53t34 33l11 10v4q-26 -4 -92 -4h-371v297h942v-178l-385 -486q-23 -28 -46.5 -52t-35.5 -34l-12 -10v-4q26 6 94 6h395v-297h-968z" />
    <glyph glyph-name="braceleft" unicode="{" horiz-adv-x="829" 
d="M254 127v201q0 55 -18 95.5t-43.5 59t-51 29t-43.5 11.5l-18 1v307q7 0 19 1t42 12t52.5 30.5t41.5 61t19 98.5v180q0 61 15.5 110.5t40 83.5t60 59.5t71.5 40t78 23.5t75 12t68 3l88 -4v-254q-23 4 -52 4q-26 0 -49 -4.5t-47 -15t-38.5 -34t-14.5 -56.5v-240
q0 -59 -17.5 -107t-43 -75t-51 -46t-43.5 -26l-17 -6v-4q7 -2 18.5 -6t41 -23t52.5 -45t41.5 -75t18.5 -109v-260q0 -33 14.5 -56.5t38.5 -34.5t47 -15.5t49 -4.5l52 4v-254q-37 -4 -88 -4q-35 0 -68 3t-75 12t-78 23.5t-71.5 40t-60 59.5t-40 83.5t-15.5 110.5z" />
    <glyph glyph-name="bar" unicode="|" horiz-adv-x="634" 
d="M170 -338v1980h295v-1980h-295z" />
    <glyph glyph-name="braceright" unicode="}" horiz-adv-x="829" 
d="M80 53q22 -4 51 -4q26 0 49 4.5t47.5 15.5t39 34.5t14.5 56.5v260q0 60 17.5 109t43 75.5t51 44.5t43.5 23l17 6v4q-7 2 -18.5 6.5t-41 25t-52.5 46.5t-41.5 74.5t-18.5 107.5v240q0 33 -14.5 56.5t-39 34t-47.5 15t-49 4.5l-51 -4v254q37 4 88 4t98 -6t106 -27
t101.5 -55t72 -97t29.5 -147v-180q0 -57 18 -98.5t43.5 -61t51.5 -30.5t44 -12l18 -1v-307q-7 0 -19 -1t-42 -11.5t-53 -29t-42 -59t-19 -95.5v-201q0 -84 -29.5 -147t-72 -97t-101.5 -55t-106 -27t-98 -6l-88 4v254z" />
    <glyph glyph-name="asciitilde" unicode="~" horiz-adv-x="1280" 
d="M96 391q0 416 357 416q53 0 98.5 -17t77.5 -41t60 -48t57.5 -41t58.5 -17q51 0 82 40t31 116h272q0 -416 -354 -416q-53 0 -98.5 17t-77.5 41t-60.5 48t-58.5 41t-60 17q-49 0 -79.5 -40.5t-30.5 -115.5h-275z" />
    <glyph glyph-name="uni00A0" unicode="&#xa0;" horiz-adv-x="468" 
 />
    <glyph glyph-name="exclamdown" unicode="&#xa1;" horiz-adv-x="655" 
d="M166 745v308h323v-308h-323zM143 -410l33 1010h303l33 -1010h-369z" />
    <glyph glyph-name="cent" unicode="&#xa2;" horiz-adv-x="1204" 
d="M512 -25v179q-186 42 -311 203t-125 376q0 214 125.5 376t310.5 204v174h225v-174q139 -31 245.5 -124.5t150.5 -227.5l-316 -123q-22 66 -70 109.5t-114 43.5q-77 0 -139 -73t-62 -185q0 -122 58.5 -190t142.5 -68q65 0 113.5 44t70.5 110l316 -123q-19 -55 -53.5 -110
t-83 -106t-116.5 -88t-143 -48v-179h-225z" />
    <glyph glyph-name="sterling" unicode="&#xa3;" horiz-adv-x="1245" 
d="M121 612v230h88v205q0 195 141 318.5t359 123.5q68 0 134 -17.5t112 -42.5t82.5 -50t54.5 -43l18 -17l-199 -242q-11 10 -29 25t-68.5 40t-94.5 25q-60 0 -102 -36.5t-42 -94.5v-194h338v-230h-338v-305h594v-307h-1073v307h113v305h-88z" />
    <glyph glyph-name="yen" unicode="&#xa5;" horiz-adv-x="1318" 
d="M141 696v197h189l-281 571h412l108 -293q22 -60 44 -128t33 -106l11 -38h5q39 137 88 272l108 293h412l-283 -571h191v-197h-287l-49 -100v-57h336v-197h-336v-342h-367v342h-334v197h334v57l-49 100h-285z" />
    <glyph glyph-name="section" unicode="&#xa7;" horiz-adv-x="1075" 
d="M285 367l-156 559q-20 76 -20 153q0 182 122.5 296t350.5 114q76 0 148 -16.5t119.5 -39.5t84.5 -46t54 -39l18 -17l-152 -221q-4 4 -12.5 10.5t-36 23t-57 29t-74 23t-88.5 10.5q-94 0 -147.5 -38t-53.5 -132q0 -58 21 -137l147 -532h-268zM61 31l142 235q5 -5 14 -12.5
t38.5 -26.5t60 -34t76.5 -27t91 -12q90 0 145.5 45t55.5 147q0 64 -27 158l-139 491h268l152 -559q20 -76 20 -153q0 -182 -122.5 -296t-350.5 -114q-76 0 -148 16.5t-119.5 39.5t-84.5 46t-55 39z" />
    <glyph glyph-name="dieresis" unicode="&#xa8;" horiz-adv-x="993" 
d="M582 1579v287h258v-287h-258zM154 1579v287h258v-287h-258z" />
    <glyph glyph-name="copyright" unicode="&#xa9;" horiz-adv-x="1638" 
d="M80 733q0 154 58 293.5t156.5 240.5t234.5 160.5t286 59.5q153 0 290.5 -59.5t237 -160.5t158 -240.5t58.5 -293.5t-58.5 -294.5t-158 -242t-237.5 -161.5t-290 -60q-120 0 -232 38.5t-202.5 108.5t-158.5 163t-105 209t-37 239zM311 733q0 -150 66 -276t182 -198.5
t256 -72.5q143 0 261 72.5t185.5 198t67.5 276.5q0 150 -67.5 274.5t-185.5 196.5t-261 72q-140 0 -256 -72t-182 -197t-66 -274zM467 727q0 161 104.5 272t247.5 111q74 0 136 -24.5t96.5 -59t58.5 -69t32 -59.5l9 -24l-205 -79q-1 4 -3.5 11t-12.5 24t-22 30t-34 24
t-47 11q-48 0 -84 -47.5t-36 -120.5q0 -81 33 -124.5t87 -43.5q40 0 69.5 25t39.5 50l10 25l205 -79q-3 -10 -9 -25.5t-31.5 -56.5t-59.5 -72t-96 -56.5t-136 -25.5q-143 0 -247.5 111t-104.5 272z" />
    <glyph glyph-name="ordfeminine" unicode="&#xaa;" horiz-adv-x="845" 
d="M319 784q-84 0 -149.5 58.5t-65.5 150.5q0 44 16 80t39.5 58.5t59.5 39.5t67.5 25.5t71.5 13.5t64.5 6t52.5 1h10v16q0 74 -96 74q-35 0 -76 -14t-65 -28l-23 -14l-78 154q4 3 12 8.5t35 19.5t57.5 24.5t79 19t99.5 8.5q144 0 220.5 -74t76.5 -203v-409h-221v80h-4
q-2 -4 -6 -10.5t-19.5 -22.5t-34.5 -28.5t-52 -23t-71 -10.5zM391 967q36 0 64 28t28 64v10h-20q-119 0 -119 -61q0 -41 47 -41zM111 549v174h624v-174h-624z" />
    <glyph glyph-name="guillemotleft" unicode="&#xab;" horiz-adv-x="1316" 
d="M590 578l336 421h323l-336 -421l336 -420h-323zM393 158l-336 420l336 421h324l-336 -421l336 -420h-324z" />
    <glyph glyph-name="logicalnot" unicode="&#xac;" horiz-adv-x="1232" 
d="M74 690v266h1036v-686h-276v420h-760z" />
    <glyph glyph-name="uni00AD" unicode="&#xad;" horiz-adv-x="880" 
d="M119 434v307h643v-307h-643z" />
    <glyph glyph-name="registered" unicode="&#xae;" horiz-adv-x="1638" 
d="M80 733q0 154 58 293.5t156.5 240.5t234.5 160.5t286 59.5q153 0 290.5 -59.5t237 -160.5t158 -240.5t58.5 -293.5t-58.5 -294.5t-158 -242t-237.5 -161.5t-290 -60q-120 0 -232 38.5t-202.5 108.5t-158.5 163t-105 209t-37 239zM311 733q0 -150 66 -276t182 -198.5
t256 -72.5q143 0 261 72.5t185.5 198t67.5 276.5q0 150 -67.5 274.5t-185.5 196.5t-261 72q-140 0 -256 -72t-182 -197t-66 -274zM549 383v711h334q115 0 182.5 -64t67.5 -172q0 -76 -40.5 -123.5t-78.5 -58.5v-4q8 -6 26 -41l129 -248h-241l-101 242h-57v-242h-221z
M770 772h55q40 0 61 22.5t21 63.5q0 84 -78 84h-59v-170z" />
    <glyph glyph-name="macron" unicode="&#xaf;" horiz-adv-x="993" 
d="M215 1602v229h563v-229h-563z" />
    <glyph glyph-name="degree" unicode="&#xb0;" horiz-adv-x="856" 
d="M428 788q-155 0 -263 102.5t-108 250.5q0 146 108.5 250t262.5 104q153 0 262 -104.5t109 -249.5q0 -147 -108.5 -250t-262.5 -103zM428 1034q46 0 79.5 32t33.5 77q0 43 -33.5 74.5t-79.5 31.5t-79.5 -31.5t-33.5 -74.5q0 -45 33.5 -77t79.5 -32z" />
    <glyph glyph-name="plusminus" unicode="&#xb1;" horiz-adv-x="1282" 
d="M82 455v266h420v457h278v-457h420v-266h-420v-455h-278v455h-420zM102 -143h1078v-267h-1078v267z" />
    <glyph glyph-name="twosuperior" unicode="&#xb2;" 
d="M90 866q-10 58 -10 101q0 75 22.5 137t58.5 103t79.5 74.5t86.5 58t79 46.5t58.5 47t22.5 52q0 33 -27 51t-65 18q-36 0 -72 -23t-55 -46l-18 -23l-170 146q4 7 12.5 19.5t38.5 44t65.5 55.5t94 43.5t123.5 19.5q61 0 118.5 -17.5t106.5 -51.5t79 -92t30 -132
q0 -67 -26.5 -123t-67 -91t-88.5 -65.5t-90 -49.5t-72 -40.5t-35 -40.5h391v-221h-670z" />
    <glyph glyph-name="threesuperior" unicode="&#xb3;" 
d="M391 846q-62 0 -118.5 14.5t-93 35t-64 40.5t-39.5 34l-13 15l125 184q3 -4 8.5 -9.5t23.5 -21t38.5 -27t52 -21t64.5 -9.5q51 0 80.5 24t29.5 62q0 36 -36 55t-91 19h-75l-50 117l127 141q6 8 18.5 19.5t21.5 19.5l10 8v4q-43 -4 -70 -4h-225v223h602v-161l-170 -187
q100 -25 149 -93t49 -165q0 -128 -94.5 -222.5t-259.5 -94.5z" />
    <glyph glyph-name="acute" unicode="&#xb4;" horiz-adv-x="991" 
d="M238 1559l165 307h351l-242 -307h-274z" />
    <glyph glyph-name="mu" unicode="&#xb5;" horiz-adv-x="1331" 
d="M143 -410v1465h355v-619q0 -72 28 -105.5t84 -33.5q109 0 166.5 82.5t57.5 208.5v467h354v-1055h-340v102l4 56h-6q-3 -7 -10.5 -19.5t-35 -44t-61.5 -55.5t-93.5 -44t-127.5 -20q-23 0 -44.5 2t-31.5 5l-10 2h-4q16 -99 16 -181v-213h-301z" />
    <glyph glyph-name="mu" unicode="&#x3bc;" horiz-adv-x="1331" 
d="M143 -410v1465h355v-619q0 -72 28 -105.5t84 -33.5q109 0 166.5 82.5t57.5 208.5v467h354v-1055h-340v102l4 56h-6q-3 -7 -10.5 -19.5t-35 -44t-61.5 -55.5t-93.5 -44t-127.5 -20q-23 0 -44.5 2t-31.5 5l-10 2h-4q16 -99 16 -181v-213h-301z" />
    <glyph glyph-name="paragraph" unicode="&#xb6;" horiz-adv-x="1339" 
d="M537 -102v596q-130 0 -240 64t-174 176t-64 247q0 204 139.5 343.5t338.5 139.5h731v-307h-486v-1259h-245zM909 -102v1157h246v-1157h-246z" />
    <glyph glyph-name="periodcentered" unicode="&#xb7;" horiz-adv-x="598" 
d="M137 436v336h324v-336h-324z" />
    <glyph glyph-name="cedilla" unicode="&#xb8;" horiz-adv-x="991" 
d="M408 59l147 -34v-15l-20 -84q67 -7 110 -47t43 -117q0 -101 -69 -146.5t-170 -45.5q-35 0 -71.5 4.5t-55.5 9.5l-19 4v179q47 -21 92 -21q78 0 78 47q0 43 -84 43l-53 -4z" />
    <glyph glyph-name="onesuperior" unicode="&#xb9;" 
d="M127 866v221h182v293q0 17 1.5 33.5t3.5 24.5l1 8h-4q-10 -21 -22 -31l-49 -45l-148 162l254 237h221v-682h185v-221h-625z" />
    <glyph glyph-name="ordmasculine" unicode="&#xba;" horiz-adv-x="931" 
d="M465 788q-157 0 -265 97.5t-108 251.5t107.5 251t263.5 97q160 0 268.5 -97t108.5 -251t-108.5 -251.5t-266.5 -97.5zM465 999q54 0 91.5 37.5t37.5 100.5q0 62 -37.5 100.5t-91.5 38.5t-91.5 -38.5t-37.5 -100.5q0 -63 37.5 -100.5t91.5 -37.5zM119 549v174h692v-174
h-692z" />
    <glyph glyph-name="guillemotright" unicode="&#xbb;" horiz-adv-x="1316" 
d="M600 158l336 420l-336 421h324l336 -421l-336 -420h-324zM68 158l335 420l-335 421h323l336 -421l-336 -420h-323z" />
    <glyph glyph-name="onequarter" unicode="&#xbc;" horiz-adv-x="2062" 
d="M1649 0v178h-404v172l350 553h308v-506h108v-219h-108v-178h-254zM1489 397h160v185q0 23 2 48.5t4 39.5l2 14h-4q-18 -55 -43 -94l-121 -189v-4zM813 0h-244l688 1464h244zM115 561v221h182v293q0 17 1.5 33.5t3.5 24.5l1 8h-4q-11 -21 -23 -31l-49 -45l-147 162
l254 237h221v-682h184v-221h-624z" />
    <glyph glyph-name="onehalf" unicode="&#xbd;" horiz-adv-x="2084" 
d="M809 0h-244l688 1464h244zM102 561v221h183v293q0 17 1.5 33.5t3.5 24.5l1 8h-4q-11 -21 -23 -31l-49 -45l-147 162l254 237h221v-682h184v-221h-625zM1309 0q-11 64 -11 100q0 75 22.5 137t58.5 103t79.5 74.5t87 58t79.5 46.5t58.5 47t22.5 52q0 33 -27 51.5t-65 18.5
q-22 0 -45.5 -9.5t-40.5 -23t-31 -27t-21 -22.5l-8 -10l-170 145q4 7 12.5 19.5t38.5 44t65.5 55.5t94 44t123.5 20q61 0 118.5 -17.5t106.5 -51.5t79 -92t30 -132q0 -67 -26.5 -123t-67 -91t-88.5 -65.5t-90 -49.5t-72 -40.5t-35 -40.5h391v-221h-669z" />
    <glyph glyph-name="threequarters" unicode="&#xbe;" horiz-adv-x="2076" 
d="M381 541q-62 0 -118.5 14.5t-93 34.5t-64 40.5t-39.5 35.5l-13 14l125 184q3 -4 8.5 -9.5t23.5 -21t38.5 -27t52 -21t64.5 -9.5q51 0 80.5 24t29.5 62q0 36 -36 55t-91 19h-76l-49 117l127 141q6 8 18.5 20t21.5 20l9 7v4q-42 -4 -69 -4h-226v223h603v-161l-170 -187
q100 -25 149 -93t49 -165q0 -128 -94.5 -222.5t-259.5 -94.5zM803 0h-244l688 1464h244zM1638 0v178h-403v172l350 553h307v-506h109v-219h-109v-178h-254zM1479 397h159v185q0 23 2 48.5t4 39.5l3 14h-5q-18 -55 -43 -94l-120 -189v-4z" />
    <glyph glyph-name="questiondown" unicode="&#xbf;" horiz-adv-x="958" 
d="M385 748v307h324v-307h-324zM27 -29q0 68 19.5 127t50 101t68 79t75 67.5t68 59.5t50 63t19.5 71v63h340v-92q0 -65 -24 -121t-59.5 -93t-77.5 -74t-77.5 -66t-59.5 -66.5t-24 -77.5q0 -52 43 -86.5t103 -34.5q44 0 92.5 22.5t74.5 44.5l27 22l197 -240q-6 -7 -18 -18.5
t-53.5 -40.5t-87.5 -51.5t-119 -41t-150 -18.5q-70 0 -137.5 16t-129 49.5t-108.5 80t-74.5 112.5t-27.5 143z" />
    <glyph glyph-name="Agrave" unicode="&#xc0;" horiz-adv-x="1355" 
d="M995 0l-90 307h-456l-89 -307h-368l497 1464h377l498 -1464h-369zM680 1130h-4q-33 -159 -60 -251l-84 -285h289l-82 285q-12 41 -27 103.5t-24 105.5zM551 1559l-242 307h350l166 -307h-274z" />
    <glyph glyph-name="Aacute" unicode="&#xc1;" horiz-adv-x="1355" 
d="M995 0l-90 307h-456l-89 -307h-368l497 1464h377l498 -1464h-369zM680 1130h-4q-33 -159 -60 -251l-84 -285h289l-82 285q-12 41 -27 103.5t-24 105.5zM530 1559l166 307h351l-242 -307h-275z" />
    <glyph glyph-name="Acircumflex" unicode="&#xc2;" horiz-adv-x="1355" 
d="M995 0l-90 307h-456l-89 -307h-368l497 1464h377l498 -1464h-369zM680 1130h-4q-33 -159 -60 -251l-84 -285h289l-82 285q-12 41 -27 103.5t-24 105.5zM303 1559l203 307h344l203 -307h-277l-96 167h-4l-96 -167h-277z" />
    <glyph glyph-name="Atilde" unicode="&#xc3;" horiz-adv-x="1355" 
d="M995 0l-90 307h-456l-89 -307h-368l497 1464h377l498 -1464h-369zM680 1130h-4q-33 -159 -60 -251l-84 -285h289l-82 285q-12 41 -27 103.5t-24 105.5zM266 1559q0 313 262 313q38 0 71.5 -12.5t57 -31t44 -36.5t42.5 -30.5t43 -12.5q76 0 76 117h230q0 -314 -263 -314
q-38 0 -71.5 12.5t-57 31t-44 36.5t-42.5 30.5t-43 12.5q-75 0 -75 -116h-230z" />
    <glyph glyph-name="Adieresis" unicode="&#xc4;" horiz-adv-x="1355" 
d="M995 0l-90 307h-456l-89 -307h-368l497 1464h377l498 -1464h-369zM680 1130h-4q-33 -159 -60 -251l-84 -285h289l-82 285q-12 41 -27 103.5t-24 105.5zM764 1579v287h258v-287h-258zM336 1579v287h258v-287h-258z" />
    <glyph glyph-name="Aring" unicode="&#xc5;" horiz-adv-x="1355" 
d="M995 0l-90 307h-456l-89 -307h-368l497 1464h377l498 -1464h-369zM680 1130h-4q-33 -159 -60 -251l-84 -285h289l-82 285q-12 41 -27 103.5t-24 105.5zM678 1530q-91 0 -157 44.5t-66 129.5t66.5 130.5t156.5 45.5t157.5 -45.5t67.5 -130.5q0 -57 -34.5 -98t-83.5 -58.5
t-107 -17.5zM678 1632q32 0 52 20t20 52q0 34 -20 54t-52 20q-31 0 -50.5 -20.5t-19.5 -53.5q0 -32 19 -52t51 -20z" />
    <glyph glyph-name="AE" unicode="&#xc6;" horiz-adv-x="1955" 
d="M-20 0l612 1464h1249v-307h-559v-266h447v-307h-447v-277h586v-307h-944v590h-344l-228 -590h-372zM799 1157l-109 -280h234v280h-125z" />
    <glyph glyph-name="Ccedilla" unicode="&#xc7;" horiz-adv-x="1478" 
d="M76 735q0 157 58.5 297t160 240t244.5 158.5t305 58.5q101 0 195 -21.5t155.5 -51.5t108.5 -60.5t69 -51.5l21 -22l-166 -270q-7 6 -19 16t-51.5 36t-80 45.5t-100 35.5t-116.5 16q-102 0 -183 -35.5t-130 -95t-75 -133t-26 -154.5q0 -83 27.5 -160.5t78 -140.5
t130.5 -101t178 -38q62 0 125 18.5t108 45t82 53t55 44.5l19 19l185 -262q-8 -9 -23 -24.5t-66.5 -55t-109.5 -71t-150.5 -59.5t-189.5 -34l-12 -51q67 -7 110 -47t43 -117q0 -101 -69 -146.5t-170 -45.5q-35 0 -71.5 4.5t-55.5 9.5l-19 4v179q47 -21 92 -21q78 0 78 47
q0 43 -84 43l-53 -4l47 150q-296 37 -475.5 245t-179.5 508z" />
    <glyph glyph-name="Egrave" unicode="&#xc8;" horiz-adv-x="1204" 
d="M172 0v1464h918v-307h-560v-266h447v-307h-447v-277h588v-307h-946zM520 1559l-241 307h350l166 -307h-275z" />
    <glyph glyph-name="Eacute" unicode="&#xc9;" horiz-adv-x="1204" 
d="M172 0v1464h918v-307h-560v-266h447v-307h-447v-277h588v-307h-946zM500 1559l166 307h350l-242 -307h-274z" />
    <glyph glyph-name="Ecircumflex" unicode="&#xca;" horiz-adv-x="1204" 
d="M172 0v1464h918v-307h-560v-266h447v-307h-447v-277h588v-307h-946zM272 1559l203 307h344l203 -307h-277l-96 167h-4l-96 -167h-277z" />
    <glyph glyph-name="Edieresis" unicode="&#xcb;" horiz-adv-x="1204" 
d="M172 0v1464h918v-307h-560v-266h447v-307h-447v-277h588v-307h-946zM733 1579v287h258v-287h-258zM305 1579v287h258v-287h-258z" />
    <glyph glyph-name="Igrave" unicode="&#xcc;" horiz-adv-x="702" 
d="M172 0v1464h358v-1464h-358zM225 1559l-241 307h350l166 -307h-275z" />
    <glyph glyph-name="Iacute" unicode="&#xcd;" horiz-adv-x="702" 
d="M172 0v1464h358v-1464h-358zM205 1559l166 307h350l-242 -307h-274z" />
    <glyph glyph-name="Icircumflex" unicode="&#xce;" horiz-adv-x="702" 
d="M172 0v1464h358v-1464h-358zM-23 1559l203 307h344l203 -307h-276l-97 167h-4l-96 -167h-277z" />
    <glyph glyph-name="Idieresis" unicode="&#xcf;" horiz-adv-x="702" 
d="M172 0v1464h358v-1464h-358zM438 1579v287h258v-287h-258zM10 1579v287h258v-287h-258z" />
    <glyph glyph-name="Eth" unicode="&#xd0;" horiz-adv-x="1570" 
d="M98 582v286h117v596h520q349 0 552.5 -193t203.5 -536t-204 -539t-552 -196h-520v582h-117zM573 307h148q189 0 294 110t105 318q0 205 -106.5 313.5t-292.5 108.5h-148v-289h213v-286h-213v-275z" />
    <glyph glyph-name="Ntilde" unicode="&#xd1;" horiz-adv-x="1581" 
d="M172 0v1464h363l405 -684q25 -43 56 -105.5t49 -103.5l18 -41h4q-16 158 -16 250v684h358v-1464h-360l-408 682q-25 43 -56 105.5t-49 103.5l-18 41h-4q16 -158 16 -250v-682h-358zM379 1559q0 313 262 313q38 0 71.5 -12.5t57 -31t44 -36.5t42.5 -30.5t43 -12.5
q76 0 76 117h229q0 -314 -262 -314q-38 0 -71.5 12.5t-57 31t-44 36.5t-42.5 30.5t-43 12.5q-76 0 -76 -116h-229z" />
    <glyph glyph-name="Ograve" unicode="&#xd2;" horiz-adv-x="1675" 
d="M72 741q0 155 58 293.5t158.5 238.5t243.5 158t306 58t306 -58t243.5 -158t158.5 -238.5t58 -293.5q0 -213 -98.5 -388t-274.5 -276.5t-393 -101.5t-393 101.5t-274.5 276.5t-98.5 388zM442 741q0 -186 115.5 -312t280.5 -126t280 126t115 312q0 179 -115 299.5
t-280 120.5q-166 0 -281 -120.5t-115 -299.5zM711 1559l-242 307h350l166 -307h-274z" />
    <glyph glyph-name="Oacute" unicode="&#xd3;" horiz-adv-x="1675" 
d="M72 741q0 155 58 293.5t158.5 238.5t243.5 158t306 58t306 -58t243.5 -158t158.5 -238.5t58 -293.5q0 -213 -98.5 -388t-274.5 -276.5t-393 -101.5t-393 101.5t-274.5 276.5t-98.5 388zM442 741q0 -186 115.5 -312t280.5 -126t280 126t115 312q0 179 -115 299.5
t-280 120.5q-166 0 -281 -120.5t-115 -299.5zM690 1559l166 307h350l-241 -307h-275z" />
    <glyph glyph-name="Ocircumflex" unicode="&#xd4;" horiz-adv-x="1675" 
d="M72 741q0 155 58 293.5t158.5 238.5t243.5 158t306 58t306 -58t243.5 -158t158.5 -238.5t58 -293.5q0 -213 -98.5 -388t-274.5 -276.5t-393 -101.5t-393 101.5t-274.5 276.5t-98.5 388zM442 741q0 -186 115.5 -312t280.5 -126t280 126t115 312q0 179 -115 299.5
t-280 120.5q-166 0 -281 -120.5t-115 -299.5zM463 1559l203 307h344l202 -307h-276l-96 167h-4l-97 -167h-276z" />
    <glyph glyph-name="Otilde" unicode="&#xd5;" horiz-adv-x="1675" 
d="M72 741q0 155 58 293.5t158.5 238.5t243.5 158t306 58t306 -58t243.5 -158t158.5 -238.5t58 -293.5q0 -213 -98.5 -388t-274.5 -276.5t-393 -101.5t-393 101.5t-274.5 276.5t-98.5 388zM442 741q0 -186 115.5 -312t280.5 -126t280 126t115 312q0 179 -115 299.5
t-280 120.5q-166 0 -281 -120.5t-115 -299.5zM426 1559q0 313 262 313q38 0 71.5 -12.5t57 -31t44 -36.5t42.5 -30.5t43 -12.5q76 0 76 117h229q0 -314 -262 -314q-38 0 -71.5 12.5t-57 31t-44 36.5t-42.5 30.5t-43 12.5q-76 0 -76 -116h-229z" />
    <glyph glyph-name="Odieresis" unicode="&#xd6;" horiz-adv-x="1675" 
d="M72 741q0 155 58 293.5t158.5 238.5t243.5 158t306 58t306 -58t243.5 -158t158.5 -238.5t58 -293.5q0 -213 -98.5 -388t-274.5 -276.5t-393 -101.5t-393 101.5t-274.5 276.5t-98.5 388zM442 741q0 -186 115.5 -312t280.5 -126t280 126t115 312q0 179 -115 299.5
t-280 120.5q-166 0 -281 -120.5t-115 -299.5zM924 1579v287h258v-287h-258zM496 1579v287h258v-287h-258z" />
    <glyph glyph-name="multiply" unicode="&#xd7;" horiz-adv-x="1275" 
d="M82 188l373 400l-373 401l188 189l367 -394l369 394l188 -189l-375 -401l375 -400l-188 -188l-369 393l-367 -393z" />
    <glyph glyph-name="Oslash" unicode="&#xd8;" horiz-adv-x="1679" 
d="M74 741q0 155 58 293.5t158.5 238.5t243.5 158t306 58q199 0 360 -82l84 115l143 -97l-81 -112q123 -104 191.5 -252.5t68.5 -319.5q0 -213 -98.5 -388t-274.5 -276.5t-393 -101.5q-211 0 -389 99l-95 -131l-143 98l98 135q-114 105 -175.5 250.5t-61.5 314.5zM1235 741
q0 165 -98 281l-486 -670q87 -49 189 -49q166 0 280.5 124.5t114.5 313.5zM444 741q0 -157 80 -270l475 655q-75 35 -159 35q-166 0 -281 -119.5t-115 -300.5z" />
    <glyph glyph-name="Ugrave" unicode="&#xd9;" horiz-adv-x="1527" 
d="M152 539v925h358v-925q0 -114 68 -175t186 -61t186 61t68 175v925h358v-925q0 -164 -75 -292t-214 -200t-321 -72q-277 0 -445.5 157t-168.5 407zM637 1559l-242 307h350l166 -307h-274z" />
    <glyph glyph-name="Uacute" unicode="&#xda;" horiz-adv-x="1527" 
d="M152 539v925h358v-925q0 -114 68 -175t186 -61t186 61t68 175v925h358v-925q0 -164 -75 -292t-214 -200t-321 -72q-277 0 -445.5 157t-168.5 407zM616 1559l166 307h351l-242 -307h-275z" />
    <glyph glyph-name="Ucircumflex" unicode="&#xdb;" horiz-adv-x="1527" 
d="M152 539v925h358v-925q0 -114 68 -175t186 -61t186 61t68 175v925h358v-925q0 -164 -75 -292t-214 -200t-321 -72q-277 0 -445.5 157t-168.5 407zM389 1559l203 307h344l203 -307h-277l-96 167h-4l-96 -167h-277z" />
    <glyph glyph-name="Udieresis" unicode="&#xdc;" horiz-adv-x="1527" 
d="M152 539v925h358v-925q0 -114 68 -175t186 -61t186 61t68 175v925h358v-925q0 -164 -75 -292t-214 -200t-321 -72q-277 0 -445.5 157t-168.5 407zM850 1579v287h258v-287h-258zM422 1579v287h258v-287h-258z" />
    <glyph glyph-name="Yacute" unicode="&#xdd;" horiz-adv-x="1308" 
d="M475 0v600l-483 864h407l166 -352q21 -44 43 -97t34 -83l11 -31h4q41 111 88 211l164 352h408l-483 -864v-600h-359zM508 1559l166 307h350l-242 -307h-274z" />
    <glyph glyph-name="Thorn" unicode="&#xde;" horiz-adv-x="1300" 
d="M172 0v1464h358v-217h250q213 0 345 -141t132 -363q0 -223 -132.5 -365t-344.5 -142h-250v-236h-358zM530 543h177q91 0 138.5 54.5t47.5 145.5q0 90 -46.5 143.5t-133.5 53.5h-183v-397z" />
    <glyph glyph-name="germandbls" unicode="&#xdf;" horiz-adv-x="1306" 
d="M131 0v1079q0 98 44 177.5t117.5 129.5t166.5 76.5t194 26.5q93 0 178.5 -28.5t151 -79t104.5 -125.5t39 -162q0 -46 -15 -86.5t-37 -69t-43.5 -55t-36.5 -56.5t-15 -61q0 -23 20.5 -48t50.5 -47.5t66 -55.5t66 -68t50.5 -88.5t20.5 -114.5q0 -87 -32.5 -156.5t-88 -113
t-126 -66t-150.5 -22.5t-143.5 10.5t-86.5 21.5l-24 11v290q95 -38 195 -38q102 0 102 86q0 25 -28.5 54t-69 60t-81 67.5t-69 91.5t-28.5 118q0 51 23 100t50.5 81t50.5 71.5t23 74.5q0 48 -34 78.5t-93 30.5q-70 0 -114 -32.5t-44 -106.5v-1055h-354z" />
    <glyph glyph-name="agrave" unicode="&#xe0;" horiz-adv-x="1146" 
d="M51 315q0 63 26 115.5t66.5 87t97.5 61t112.5 41t117.5 23.5t106.5 11.5t86.5 2.5h14v19q0 117 -156 117q-59 0 -130 -25.5t-112 -50.5l-42 -25l-123 250q7 6 21 15t59.5 32.5t94 41.5t121.5 33t146 15q223 0 349 -114.5t126 -315.5v-649h-323v63l4 66h-4
q-3 -6 -9.5 -16.5t-32 -37t-56.5 -47t-85 -37t-116 -16.5q-152 0 -255.5 93.5t-103.5 246.5zM408 334q0 -39 25 -63.5t75 -24.5q67 0 120.5 59.5t53.5 126.5v23h-33q-61 0 -113 -11.5t-90 -39.5t-38 -70zM446 1157l-241 307h350l166 -307h-275z" />
    <glyph glyph-name="aacute" unicode="&#xe1;" horiz-adv-x="1146" 
d="M51 315q0 63 26 115.5t66.5 87t97.5 61t112.5 41t117.5 23.5t106.5 11.5t86.5 2.5h14v19q0 117 -156 117q-59 0 -130 -25.5t-112 -50.5l-42 -25l-123 250q7 6 21 15t59.5 32.5t94 41.5t121.5 33t146 15q223 0 349 -114.5t126 -315.5v-649h-323v63l4 66h-4
q-3 -6 -9.5 -16.5t-32 -37t-56.5 -47t-85 -37t-116 -16.5q-152 0 -255.5 93.5t-103.5 246.5zM408 334q0 -39 25 -63.5t75 -24.5q67 0 120.5 59.5t53.5 126.5v23h-33q-61 0 -113 -11.5t-90 -39.5t-38 -70zM424 1157l166 307h350l-242 -307h-274z" />
    <glyph glyph-name="acircumflex" unicode="&#xe2;" horiz-adv-x="1146" 
d="M51 315q0 63 26 115.5t66.5 87t97.5 61t112.5 41t117.5 23.5t106.5 11.5t86.5 2.5h14v19q0 117 -156 117q-59 0 -130 -25.5t-112 -50.5l-42 -25l-123 250q7 6 21 15t59.5 32.5t94 41.5t121.5 33t146 15q223 0 349 -114.5t126 -315.5v-649h-323v63l4 66h-4
q-3 -6 -9.5 -16.5t-32 -37t-56.5 -47t-85 -37t-116 -16.5q-152 0 -255.5 93.5t-103.5 246.5zM408 334q0 -39 25 -63.5t75 -24.5q67 0 120.5 59.5t53.5 126.5v23h-33q-61 0 -113 -11.5t-90 -39.5t-38 -70zM197 1157l202 307h344l203 -307h-276l-97 168h-4l-96 -168h-276z" />
    <glyph glyph-name="atilde" unicode="&#xe3;" horiz-adv-x="1146" 
d="M51 315q0 63 26 115.5t66.5 87t97.5 61t112.5 41t117.5 23.5t106.5 11.5t86.5 2.5h14v19q0 117 -156 117q-59 0 -130 -25.5t-112 -50.5l-42 -25l-123 250q7 6 21 15t59.5 32.5t94 41.5t121.5 33t146 15q223 0 349 -114.5t126 -315.5v-649h-323v63l4 66h-4
q-3 -6 -9.5 -16.5t-32 -37t-56.5 -47t-85 -37t-116 -16.5q-152 0 -255.5 93.5t-103.5 246.5zM408 334q0 -39 25 -63.5t75 -24.5q67 0 120.5 59.5t53.5 126.5v23h-33q-61 0 -113 -11.5t-90 -39.5t-38 -70zM160 1157q0 313 262 313q46 0 87 -19t64.5 -42t52.5 -42t54 -19
q76 0 76 116h229q0 -313 -262 -313q-38 0 -71.5 12.5t-57 30.5t-44 36.5t-42.5 31t-43 12.5q-76 0 -76 -117h-229z" />
    <glyph glyph-name="adieresis" unicode="&#xe4;" horiz-adv-x="1146" 
d="M51 315q0 63 26 115.5t66.5 87t97.5 61t112.5 41t117.5 23.5t106.5 11.5t86.5 2.5h14v19q0 117 -156 117q-59 0 -130 -25.5t-112 -50.5l-42 -25l-123 250q7 6 21 15t59.5 32.5t94 41.5t121.5 33t146 15q223 0 349 -114.5t126 -315.5v-649h-323v63l4 66h-4
q-3 -6 -9.5 -16.5t-32 -37t-56.5 -47t-85 -37t-116 -16.5q-152 0 -255.5 93.5t-103.5 246.5zM408 334q0 -39 25 -63.5t75 -24.5q67 0 120.5 59.5t53.5 126.5v23h-33q-61 0 -113 -11.5t-90 -39.5t-38 -70zM657 1178v286h258v-286h-258zM229 1178v286h258v-286h-258z" />
    <glyph glyph-name="aring" unicode="&#xe5;" horiz-adv-x="1146" 
d="M51 315q0 63 26 115.5t66.5 87t97.5 61t112.5 41t117.5 23.5t106.5 11.5t86.5 2.5h14v19q0 117 -156 117q-59 0 -130 -25.5t-112 -50.5l-42 -25l-123 250q7 6 21 15t59.5 32.5t94 41.5t121.5 33t146 15q223 0 349 -114.5t126 -315.5v-649h-323v63l4 66h-4
q-3 -6 -9.5 -16.5t-32 -37t-56.5 -47t-85 -37t-116 -16.5q-152 0 -255.5 93.5t-103.5 246.5zM408 334q0 -39 25 -63.5t75 -24.5q67 0 120.5 59.5t53.5 126.5v23h-33q-61 0 -113 -11.5t-90 -39.5t-38 -70zM571 1128q-90 0 -156.5 45t-66.5 130t66.5 130.5t156.5 45.5
q91 0 158.5 -45.5t67.5 -130.5q0 -57 -34.5 -98t-84.5 -59t-107 -18zM571 1231q32 0 52 20t20 52q0 33 -19.5 53t-52.5 20q-31 0 -50 -20t-19 -53t18.5 -52.5t50.5 -19.5z" />
    <glyph glyph-name="ae" unicode="&#xe6;" horiz-adv-x="1751" 
d="M53 315q0 65 26 118.5t66.5 88.5t98 61.5t113 41t119 23.5t108 11.5t88.5 2.5h8v14q0 117 -156 117q-59 0 -130.5 -25.5t-113.5 -50.5l-42 -25l-123 248q7 6 20.5 15t58 33t92 42.5t120 33.5t145.5 15q118 0 197 -26t137 -78h4q126 104 315 104q222 0 355 -146t133 -374
l-9 -100h-665q19 -95 87 -142t159 -47q43 0 88.5 11t80 26t63 30.5t43.5 26.5l15 11l132 -246q-7 -6 -20 -16.5t-57.5 -37t-93.5 -47t-125 -37t-155 -16.5q-273 0 -424 185h-4q-13 -23 -39.5 -49.5t-73 -59t-121 -53.5t-161.5 -21q-152 0 -255.5 93t-103.5 245zM1026 662
h309q0 59 -37.5 105t-93.5 46q-139 0 -178 -151zM410 334q0 -39 25.5 -63.5t78.5 -24.5q69 0 120.5 60t51.5 128v25h-35q-59 0 -112.5 -13t-91 -42.5t-37.5 -69.5z" />
    <glyph glyph-name="ccedilla" unicode="&#xe7;" horiz-adv-x="1132" 
d="M57 528q0 107 39.5 205.5t112 176t185.5 123.5t251 46q80 0 153 -16.5t119.5 -39.5t81.5 -46.5t51 -40.5l15 -16l-150 -238q-4 4 -12 11t-33 24.5t-52.5 31t-68 24.5t-81.5 11q-119 0 -185.5 -75t-66.5 -177q0 -103 69.5 -182.5t194.5 -79.5q65 0 137.5 32t112.5 64
l39 31l129 -247l-17 -17t-50.5 -39t-83 -50t-113.5 -42.5t-144 -24.5l-12 -51q67 -7 110 -47t43 -117q0 -101 -69 -146.5t-170 -45.5q-35 0 -71.5 4.5t-55.5 9.5l-19 4v179q48 -21 93 -21q77 0 77 47q0 43 -84 43l-53 -4l47 154q-146 23 -254 103t-161.5 193.5t-53.5 245.5z
" />
    <glyph glyph-name="egrave" unicode="&#xe8;" horiz-adv-x="1153" 
d="M55 528q0 155 65.5 279.5t191.5 198t292 73.5q228 0 358 -142t130 -368l-9 -110h-665q19 -92 87.5 -140.5t158.5 -48.5q68 0 140.5 27t111.5 53l38 27l131 -248q-7 -6 -20 -16.5t-57.5 -37t-93 -47t-124.5 -37t-155 -16.5q-137 0 -249 46.5t-183 124.5t-109.5 176.5
t-38.5 205.5zM426 662h309q0 62 -39 106.5t-100 44.5q-71 0 -113 -42.5t-57 -108.5zM471 1157l-242 307h351l165 -307h-274z" />
    <glyph glyph-name="eacute" unicode="&#xe9;" horiz-adv-x="1153" 
d="M55 528q0 155 65.5 279.5t191.5 198t292 73.5q228 0 358 -142t130 -368l-9 -110h-665q19 -92 87.5 -140.5t158.5 -48.5q68 0 140.5 27t111.5 53l38 27l131 -248q-7 -6 -20 -16.5t-57.5 -37t-93 -47t-124.5 -37t-155 -16.5q-137 0 -249 46.5t-183 124.5t-109.5 176.5
t-38.5 205.5zM426 662h309q0 62 -39 106.5t-100 44.5q-71 0 -113 -42.5t-57 -108.5zM449 1157l165 307h351l-242 -307h-274z" />
    <glyph glyph-name="ecircumflex" unicode="&#xea;" horiz-adv-x="1153" 
d="M55 528q0 155 65.5 279.5t191.5 198t292 73.5q228 0 358 -142t130 -368l-9 -110h-665q19 -92 87.5 -140.5t158.5 -48.5q68 0 140.5 27t111.5 53l38 27l131 -248q-7 -6 -20 -16.5t-57.5 -37t-93 -47t-124.5 -37t-155 -16.5q-137 0 -249 46.5t-183 124.5t-109.5 176.5
t-38.5 205.5zM426 662h309q0 62 -39 106.5t-100 44.5q-71 0 -113 -42.5t-57 -108.5zM221 1157l203 307h344l203 -307h-277l-96 168h-4l-96 -168h-277z" />
    <glyph glyph-name="edieresis" unicode="&#xeb;" horiz-adv-x="1153" 
d="M55 528q0 155 65.5 279.5t191.5 198t292 73.5q228 0 358 -142t130 -368l-9 -110h-665q19 -92 87.5 -140.5t158.5 -48.5q68 0 140.5 27t111.5 53l38 27l131 -248q-7 -6 -20 -16.5t-57.5 -37t-93 -47t-124.5 -37t-155 -16.5q-137 0 -249 46.5t-183 124.5t-109.5 176.5
t-38.5 205.5zM426 662h309q0 62 -39 106.5t-100 44.5q-71 0 -113 -42.5t-57 -108.5zM682 1178v286h258v-286h-258zM254 1178v286h258v-286h-258z" />
    <glyph glyph-name="igrave" unicode="&#xec;" horiz-adv-x="616" 
d="M131 0v1055h354v-1055h-354zM180 1157l-241 307h350l166 -307h-275z" />
    <glyph glyph-name="iacute" unicode="&#xed;" horiz-adv-x="616" 
d="M131 0v1055h354v-1055h-354zM160 1157l166 307h350l-242 -307h-274z" />
    <glyph glyph-name="icircumflex" unicode="&#xee;" horiz-adv-x="616" 
d="M131 0v1055h354v-1055h-354zM-68 1157l203 307h344l203 -307h-276l-97 168h-4l-96 -168h-277z" />
    <glyph glyph-name="idieresis" unicode="&#xef;" horiz-adv-x="616" 
d="M131 0v1055h354v-1055h-354zM393 1178v286h258v-286h-258zM-35 1178v286h258v-286h-258z" />
    <glyph glyph-name="eth" unicode="&#xf0;" horiz-adv-x="1220" 
d="M61 494q0 90 33 172t92.5 145.5t150.5 101t198 37.5q36 0 71 -4.5t52 -9.5l18 -4h4q-52 77 -143 129l-394 -162v195l189 80q-104 45 -195 61l99 276q271 -57 475 -182l329 137v-194l-166 -70q261 -251 261 -622q0 -89 -17.5 -172t-59 -163t-103.5 -139t-158 -95t-215 -36
q-121 0 -221 43.5t-164.5 116.5t-100 165.5t-35.5 193.5zM418 483q0 -91 41.5 -152t128.5 -61q67 0 111.5 37.5t61.5 89.5t17 115q0 75 -45 121.5t-125 46.5q-92 0 -141 -56.5t-49 -140.5z" />
    <glyph glyph-name="ntilde" unicode="&#xf1;" horiz-adv-x="1302" 
d="M131 0v1055h340v-92l-4 -66h4q45 76 127.5 129t208.5 53q83 0 149.5 -20.5t119.5 -65t81.5 -123t28.5 -186.5v-684h-355v618q0 73 -28.5 106.5t-87.5 33.5q-80 0 -132.5 -40.5t-76.5 -111.5q-21 -62 -21 -139v-467h-354zM254 1157q0 313 262 313q46 0 87 -19t64.5 -42
t52.5 -42t54 -19q76 0 76 116h229q0 -313 -262 -313q-38 0 -71.5 12.5t-57 30.5t-44 36.5t-42.5 31t-43 12.5q-76 0 -76 -117h-229z" />
    <glyph glyph-name="ograve" unicode="&#xf2;" horiz-adv-x="1302" 
d="M53 524q0 122 47 226.5t127 176t189.5 112t232.5 40.5q167 0 303 -68.5t216.5 -196.5t80.5 -290q0 -161 -80.5 -287.5t-216 -194t-301.5 -67.5t-301.5 67.5t-216 194t-80.5 287.5zM412 524q0 -115 69.5 -184.5t169.5 -69.5t170 69.5t70 184.5q0 117 -70 188.5t-170 71.5
t-169.5 -71.5t-69.5 -188.5zM524 1157l-241 307h350l166 -307h-275z" />
    <glyph glyph-name="oacute" unicode="&#xf3;" horiz-adv-x="1302" 
d="M53 524q0 122 47 226.5t127 176t189.5 112t232.5 40.5q167 0 303 -68.5t216.5 -196.5t80.5 -290q0 -161 -80.5 -287.5t-216 -194t-301.5 -67.5t-301.5 67.5t-216 194t-80.5 287.5zM412 524q0 -115 69.5 -184.5t169.5 -69.5t170 69.5t70 184.5q0 117 -70 188.5t-170 71.5
t-169.5 -71.5t-69.5 -188.5zM504 1157l166 307h350l-242 -307h-274z" />
    <glyph glyph-name="ocircumflex" unicode="&#xf4;" horiz-adv-x="1302" 
d="M53 524q0 122 47 226.5t127 176t189.5 112t232.5 40.5q167 0 303 -68.5t216.5 -196.5t80.5 -290q0 -161 -80.5 -287.5t-216 -194t-301.5 -67.5t-301.5 67.5t-216 194t-80.5 287.5zM412 524q0 -115 69.5 -184.5t169.5 -69.5t170 69.5t70 184.5q0 117 -70 188.5t-170 71.5
t-169.5 -71.5t-69.5 -188.5zM276 1157l203 307h344l203 -307h-276l-97 168h-4l-96 -168h-277z" />
    <glyph glyph-name="otilde" unicode="&#xf5;" horiz-adv-x="1302" 
d="M53 524q0 122 47 226.5t127 176t189.5 112t232.5 40.5q167 0 303 -68.5t216.5 -196.5t80.5 -290q0 -161 -80.5 -287.5t-216 -194t-301.5 -67.5t-301.5 67.5t-216 194t-80.5 287.5zM412 524q0 -115 69.5 -184.5t169.5 -69.5t170 69.5t70 184.5q0 117 -70 188.5t-170 71.5
t-169.5 -71.5t-69.5 -188.5zM240 1157q0 313 262 313q46 0 87 -19t64.5 -42t52.5 -42t54 -19q76 0 76 116h229q0 -313 -262 -313q-38 0 -71.5 12.5t-57 30.5t-44 36.5t-42.5 31t-43 12.5q-76 0 -76 -117h-229z" />
    <glyph glyph-name="odieresis" unicode="&#xf6;" horiz-adv-x="1302" 
d="M53 524q0 122 47 226.5t127 176t189.5 112t232.5 40.5q167 0 303 -68.5t216.5 -196.5t80.5 -290q0 -161 -80.5 -287.5t-216 -194t-301.5 -67.5t-301.5 67.5t-216 194t-80.5 287.5zM412 524q0 -115 69.5 -184.5t169.5 -69.5t170 69.5t70 184.5q0 117 -70 188.5t-170 71.5
t-169.5 -71.5t-69.5 -188.5zM737 1178v286h258v-286h-258zM309 1178v286h258v-286h-258z" />
    <glyph glyph-name="divide" unicode="&#xf7;" horiz-adv-x="1458" 
d="M580 901v277h299v-277h-299zM170 455v266h1118v-266h-1118zM580 0v276h299v-276h-299z" />
    <glyph glyph-name="oslash" unicode="&#xf8;" horiz-adv-x="1300" 
d="M51 524q0 122 47 226.5t127 176t189.5 112t232.5 40.5q144 0 268 -53l86 119l136 -92l-82 -113q91 -75 141.5 -181.5t50.5 -234.5q0 -161 -80.5 -287.5t-216 -194t-301.5 -67.5q-136 0 -254 48l-90 -125l-135 94l80 112q-94 74 -146.5 181.5t-52.5 238.5zM410 524
q0 -84 39 -145l282 391q-47 14 -82 14q-100 0 -169.5 -71.5t-69.5 -188.5zM889 524q0 74 -33 138l-276 -383q34 -9 69 -9q100 0 170 69.5t70 184.5z" />
    <glyph glyph-name="ugrave" unicode="&#xf9;" horiz-adv-x="1292" 
d="M117 371v684h354v-619q0 -139 113 -139q109 0 166 82.5t57 208.5v467h354v-1055h-340v92l4 66h-4q-42 -84 -132 -133.5t-197 -49.5q-82 0 -147.5 20.5t-118 65.5t-81 123.5t-28.5 186.5zM512 1157l-242 307h351l165 -307h-274z" />
    <glyph glyph-name="uacute" unicode="&#xfa;" horiz-adv-x="1292" 
d="M117 371v684h354v-619q0 -139 113 -139q109 0 166 82.5t57 208.5v467h354v-1055h-340v92l4 66h-4q-42 -84 -132 -133.5t-197 -49.5q-82 0 -147.5 20.5t-118 65.5t-81 123.5t-28.5 186.5zM492 1157l165 307h351l-242 -307h-274z" />
    <glyph glyph-name="ucircumflex" unicode="&#xfb;" horiz-adv-x="1292" 
d="M117 371v684h354v-619q0 -139 113 -139q109 0 166 82.5t57 208.5v467h354v-1055h-340v92l4 66h-4q-42 -84 -132 -133.5t-197 -49.5q-82 0 -147.5 20.5t-118 65.5t-81 123.5t-28.5 186.5zM264 1157l203 307h344l203 -307h-277l-96 168h-4l-96 -168h-277z" />
    <glyph glyph-name="udieresis" unicode="&#xfc;" horiz-adv-x="1292" 
d="M117 371v684h354v-619q0 -139 113 -139q109 0 166 82.5t57 208.5v467h354v-1055h-340v92l4 66h-4q-42 -84 -132 -133.5t-197 -49.5q-82 0 -147.5 20.5t-118 65.5t-81 123.5t-28.5 186.5zM725 1178v286h258v-286h-258zM297 1178v286h258v-286h-258z" />
    <glyph glyph-name="yacute" unicode="&#xfd;" horiz-adv-x="1118" 
d="M2 -356l113 260q57 -39 108 -39q126 0 170 106l21 49l-449 1035h402l155 -486q8 -25 18 -66t16 -69l5 -28h4q21 100 35 157l133 492h387l-432 -1168q-62 -165 -181 -241t-259 -76q-62 0 -123.5 18.5t-92.5 37.5zM416 1155l166 307h350l-242 -307h-274z" />
    <glyph glyph-name="thorn" unicode="&#xfe;" horiz-adv-x="1300" 
d="M131 -410v1874h354v-403l-4 -90h4q97 108 275 108q142 0 253 -73t170.5 -198t59.5 -280t-59.5 -280.5t-170.5 -199t-253 -73.5q-56 0 -104.5 10t-78.5 24.5t-52 29.5t-31 25l-9 10h-4q4 -37 4 -90v-394h-354zM475 526q0 -256 213 -256q90 0 144.5 75t54.5 183t-54.5 182
t-144.5 74q-213 0 -213 -258z" />
    <glyph glyph-name="ydieresis" unicode="&#xff;" horiz-adv-x="1118" 
d="M2 -356l113 260q57 -39 108 -39q126 0 170 106l21 49l-449 1035h402l155 -486q8 -25 18 -66t16 -69l5 -28h4q21 100 35 157l133 492h387l-432 -1168q-62 -165 -181 -241t-259 -76q-62 0 -123.5 18.5t-92.5 37.5zM649 1176v286h258v-286h-258zM221 1176v286h258v-286h-258
z" />
    <glyph glyph-name="Amacron" unicode="&#x100;" horiz-adv-x="1355" 
d="M995 0l-90 307h-456l-89 -307h-368l497 1464h377l498 -1464h-369zM680 1130h-4q-33 -159 -60 -251l-84 -285h289l-82 285q-12 41 -27 103.5t-24 105.5zM397 1602v229h564v-229h-564z" />
    <glyph glyph-name="amacron" unicode="&#x101;" horiz-adv-x="1146" 
d="M51 315q0 63 26 115.5t66.5 87t97.5 61t112.5 41t117.5 23.5t106.5 11.5t86.5 2.5h14v19q0 117 -156 117q-59 0 -130 -25.5t-112 -50.5l-42 -25l-123 250q7 6 21 15t59.5 32.5t94 41.5t121.5 33t146 15q223 0 349 -114.5t126 -315.5v-649h-323v63l4 66h-4
q-3 -6 -9.5 -16.5t-32 -37t-56.5 -47t-85 -37t-116 -16.5q-152 0 -255.5 93.5t-103.5 246.5zM408 334q0 -39 25 -63.5t75 -24.5q67 0 120.5 59.5t53.5 126.5v23h-33q-61 0 -113 -11.5t-90 -39.5t-38 -70zM291 1200v230h563v-230h-563z" />
    <glyph glyph-name="Abreve" unicode="&#x102;" horiz-adv-x="1355" 
d="M995 0l-90 307h-456l-89 -307h-368l497 1464h377l498 -1464h-369zM680 1130h-4q-33 -159 -60 -251l-84 -285h289l-82 285q-12 41 -27 103.5t-24 105.5zM678 1548q-149 0 -252.5 80t-103.5 217v21h239v-23q0 -57 35.5 -88t81.5 -31t81.5 31t35.5 88v23h239v-21
q0 -137 -103.5 -217t-252.5 -80z" />
    <glyph glyph-name="abreve" unicode="&#x103;" horiz-adv-x="1146" 
d="M51 315q0 63 26 115.5t66.5 87t97.5 61t112.5 41t117.5 23.5t106.5 11.5t86.5 2.5h14v19q0 117 -156 117q-59 0 -130 -25.5t-112 -50.5l-42 -25l-123 250q7 6 21 15t59.5 32.5t94 41.5t121.5 33t146 15q223 0 349 -114.5t126 -315.5v-649h-323v63l4 66h-4
q-3 -6 -9.5 -16.5t-32 -37t-56.5 -47t-85 -37t-116 -16.5q-152 0 -255.5 93.5t-103.5 246.5zM408 334q0 -39 25 -63.5t75 -24.5q67 0 120.5 59.5t53.5 126.5v23h-33q-61 0 -113 -11.5t-90 -39.5t-38 -70zM571 1147q-149 0 -252.5 80t-103.5 217v20h240v-22q0 -57 35 -88
t81 -31t81.5 31t35.5 88v22h240v-20q0 -137 -103.5 -217t-253.5 -80z" />
    <glyph glyph-name="Aogonek" unicode="&#x104;" horiz-adv-x="1355" 
d="M995 0l-90 307h-456l-89 -307h-368l497 1464h377l498 -1464q-88 -83 -88 -125q0 -20 19.5 -32.5t38.5 -15.5l20 -3l-86 -254q-6 1 -15.5 2t-38 7.5t-54.5 15t-57.5 25t-54 36.5t-38 50.5t-15.5 66.5q0 110 129 223v4h-129zM680 1130h-4q-33 -159 -60 -251l-84 -285h289
l-82 285q-12 41 -27 103.5t-24 105.5z" />
    <glyph glyph-name="aogonek" unicode="&#x105;" horiz-adv-x="1146" 
d="M51 315q0 63 26 115.5t66.5 87t97.5 61t112.5 41t117.5 23.5t106.5 11.5t86.5 2.5h14v19q0 117 -156 117q-59 0 -130 -25.5t-112 -50.5l-42 -25l-123 250q7 6 21 15t59.5 32.5t94 41.5t121.5 33t146 15q223 0 349 -114.5t126 -315.5v-649q-88 -83 -88 -125
q0 -20 19.5 -32.5t38.5 -15.5l20 -3l-86 -254q-6 1 -15.5 2t-38 7.5t-54 15t-57 25t-54 36.5t-38 50.5t-15.5 66.5q0 110 129 223v4h-84v63l4 66h-4q-3 -6 -9.5 -16.5t-32 -37t-56.5 -47t-85 -37t-116 -16.5q-152 0 -255.5 93.5t-103.5 246.5zM408 334q0 -39 25 -63.5
t75 -24.5q67 0 120.5 59.5t53.5 126.5v23h-33q-61 0 -113 -11.5t-90 -39.5t-38 -70z" />
    <glyph glyph-name="Cacute" unicode="&#x106;" horiz-adv-x="1474" 
d="M72 735q0 157 58.5 297t160 240t244.5 158.5t305 58.5q101 0 195 -21.5t155.5 -51.5t108.5 -60.5t69 -51.5l21 -22l-166 -270q-7 6 -19 16t-51.5 36t-80 45.5t-100 35.5t-116.5 16q-102 0 -183 -35.5t-130 -95t-75 -133t-26 -154.5q0 -83 27.5 -160.5t78 -140.5
t130.5 -101t178 -38q62 0 125 18.5t108 45t82 53t55 44.5l19 19l185 -262q-8 -10 -24.5 -26.5t-73 -59t-119.5 -75t-164.5 -59t-208.5 -26.5q-225 0 -401 99.5t-271.5 272t-95.5 388.5zM672 1559l166 307h350l-242 -307h-274z" />
    <glyph glyph-name="cacute" unicode="&#x107;" horiz-adv-x="1128" 
d="M53 528q0 107 39.5 205.5t112 176t185.5 123.5t251 46q80 0 153 -16.5t119.5 -39.5t81.5 -46.5t51 -40.5l15 -16l-150 -238q-4 4 -12 11t-33 24.5t-52.5 31t-68 24.5t-81.5 11q-119 0 -185.5 -75t-66.5 -177q0 -103 69.5 -182.5t194.5 -79.5q65 0 137.5 32t112.5 64
l39 31l129 -247q-6 -7 -18.5 -19t-56 -42t-92 -53t-126 -42t-160.5 -19q-137 0 -250 45.5t-186 122t-112.5 176t-39.5 209.5zM453 1157l165 307h351l-242 -307h-274z" />
    <glyph glyph-name="Ccircumflex" unicode="&#x108;" horiz-adv-x="1474" 
d="M72 735q0 157 58.5 297t160 240t244.5 158.5t305 58.5q101 0 195 -21.5t155.5 -51.5t108.5 -60.5t69 -51.5l21 -22l-166 -270q-7 6 -19 16t-51.5 36t-80 45.5t-100 35.5t-116.5 16q-102 0 -183 -35.5t-130 -95t-75 -133t-26 -154.5q0 -83 27.5 -160.5t78 -140.5
t130.5 -101t178 -38q62 0 125 18.5t108 45t82 53t55 44.5l19 19l185 -262q-8 -10 -24.5 -26.5t-73 -59t-119.5 -75t-164.5 -59t-208.5 -26.5q-225 0 -401 99.5t-271.5 272t-95.5 388.5zM444 1559l203 307h344l203 -307h-276l-97 167h-4l-96 -167h-277z" />
    <glyph glyph-name="ccircumflex" unicode="&#x109;" horiz-adv-x="1128" 
d="M53 528q0 107 39.5 205.5t112 176t185.5 123.5t251 46q80 0 153 -16.5t119.5 -39.5t81.5 -46.5t51 -40.5l15 -16l-150 -238q-4 4 -12 11t-33 24.5t-52.5 31t-68 24.5t-81.5 11q-119 0 -185.5 -75t-66.5 -177q0 -103 69.5 -182.5t194.5 -79.5q65 0 137.5 32t112.5 64
l39 31l129 -247q-6 -7 -18.5 -19t-56 -42t-92 -53t-126 -42t-160.5 -19q-137 0 -250 45.5t-186 122t-112.5 176t-39.5 209.5zM225 1157l203 307h344l203 -307h-277l-96 168h-4l-96 -168h-277z" />
    <glyph glyph-name="Cdotaccent" unicode="&#x10a;" horiz-adv-x="1474" 
d="M72 735q0 157 58.5 297t160 240t244.5 158.5t305 58.5q101 0 195 -21.5t155.5 -51.5t108.5 -60.5t69 -51.5l21 -22l-166 -270q-7 6 -19 16t-51.5 36t-80 45.5t-100 35.5t-116.5 16q-102 0 -183 -35.5t-130 -95t-75 -133t-26 -154.5q0 -83 27.5 -160.5t78 -140.5
t130.5 -101t178 -38q62 0 125 18.5t108 45t82 53t55 44.5l19 19l185 -262q-8 -10 -24.5 -26.5t-73 -59t-119.5 -75t-164.5 -59t-208.5 -26.5q-225 0 -401 99.5t-271.5 272t-95.5 388.5zM674 1595v271h293v-271h-293z" />
    <glyph glyph-name="cdotaccent" unicode="&#x10b;" horiz-adv-x="1128" 
d="M53 528q0 107 39.5 205.5t112 176t185.5 123.5t251 46q80 0 153 -16.5t119.5 -39.5t81.5 -46.5t51 -40.5l15 -16l-150 -238q-4 4 -12 11t-33 24.5t-52.5 31t-68 24.5t-81.5 11q-119 0 -185.5 -75t-66.5 -177q0 -103 69.5 -182.5t194.5 -79.5q65 0 137.5 32t112.5 64
l39 31l129 -247q-6 -7 -18.5 -19t-56 -42t-92 -53t-126 -42t-160.5 -19q-137 0 -250 45.5t-186 122t-112.5 176t-39.5 209.5zM455 1194v270h293v-270h-293z" />
    <glyph glyph-name="Ccaron" unicode="&#x10c;" horiz-adv-x="1474" 
d="M72 735q0 157 58.5 297t160 240t244.5 158.5t305 58.5q101 0 195 -21.5t155.5 -51.5t108.5 -60.5t69 -51.5l21 -22l-166 -270q-7 6 -19 16t-51.5 36t-80 45.5t-100 35.5t-116.5 16q-102 0 -183 -35.5t-130 -95t-75 -133t-26 -154.5q0 -83 27.5 -160.5t78 -140.5
t130.5 -101t178 -38q62 0 125 18.5t108 45t82 53t55 44.5l19 19l185 -262q-8 -10 -24.5 -26.5t-73 -59t-119.5 -75t-164.5 -59t-208.5 -26.5q-225 0 -401 99.5t-271.5 272t-95.5 388.5zM647 1559l-203 307h277l96 -168h4l97 168h276l-203 -307h-344z" />
    <glyph glyph-name="ccaron" unicode="&#x10d;" horiz-adv-x="1128" 
d="M53 528q0 107 39.5 205.5t112 176t185.5 123.5t251 46q80 0 153 -16.5t119.5 -39.5t81.5 -46.5t51 -40.5l15 -16l-150 -238q-4 4 -12 11t-33 24.5t-52.5 31t-68 24.5t-81.5 11q-119 0 -185.5 -75t-66.5 -177q0 -103 69.5 -182.5t194.5 -79.5q65 0 137.5 32t112.5 64
l39 31l129 -247q-6 -7 -18.5 -19t-56 -42t-92 -53t-126 -42t-160.5 -19q-137 0 -250 45.5t-186 122t-112.5 176t-39.5 209.5zM428 1157l-203 307h277l96 -168h4l96 168h277l-203 -307h-344z" />
    <glyph glyph-name="Dcaron" unicode="&#x10e;" horiz-adv-x="1527" 
d="M172 0v1464h520q349 0 552.5 -193t203.5 -536t-204 -539t-552 -196h-520zM530 307h148q189 0 294 110t105 318q0 205 -106.5 313.5t-292.5 108.5h-148v-850zM549 1559l-203 307h277l96 -168h4l96 168h277l-203 -307h-344z" />
    <glyph glyph-name="dcaron" unicode="&#x10f;" horiz-adv-x="1366" 
d="M59 528q0 248 134.5 399.5t347.5 151.5q60 0 110 -8.5t79.5 -21t50 -25t28.5 -20.5l8 -9h4q-2 20 -2 47v422h355v-1464h-332v70l2 59h-4l-11 -16.5t-34 -37t-59 -47t-86 -37t-115 -16.5q-214 0 -345 153t-131 400zM416 528q0 -118 57 -189t150 -71q87 0 146.5 66
t59.5 194q0 103 -54 177.5t-152 74.5q-87 0 -147 -67.5t-60 -184.5zM1268 1464h278q15 -65 15 -118q0 -95 -58 -211h-252q41 118 41 190q0 68 -24 139z" />
    <glyph glyph-name="Dcroat" unicode="&#x110;" horiz-adv-x="1570" 
d="M98 582v286h117v596h520q349 0 552.5 -193t203.5 -536t-204 -539t-552 -196h-520v582h-117zM573 307h148q189 0 294 110t105 318q0 205 -106.5 313.5t-292.5 108.5h-148v-289h213v-286h-213v-275z" />
    <glyph glyph-name="dcroat" unicode="&#x111;" horiz-adv-x="1304" 
d="M561 1135v194h258v135h355v-135h135v-194h-135v-1135h-332v70l2 59h-4l-11 -16.5t-34 -37t-59 -47t-86 -37t-115 -16.5q-214 0 -345 153t-131 400q0 248 134.5 399.5t347.5 151.5q60 0 110 -8.5t79.5 -21t50 -25t28.5 -20.5l8 -9h4q-2 20 -2 47v93h-258zM416 528
q0 -118 57 -189t150 -71q87 0 146.5 66t59.5 194q0 103 -54 177.5t-152 74.5q-87 0 -147 -67.5t-60 -184.5z" />
    <glyph glyph-name="Emacron" unicode="&#x112;" horiz-adv-x="1204" 
d="M172 0v1464h918v-307h-560v-266h447v-307h-447v-277h588v-307h-946zM367 1602v229h563v-229h-563z" />
    <glyph glyph-name="emacron" unicode="&#x113;" horiz-adv-x="1153" 
d="M55 528q0 155 65.5 279.5t191.5 198t292 73.5q228 0 358 -142t130 -368l-9 -110h-665q19 -92 87.5 -140.5t158.5 -48.5q68 0 140.5 27t111.5 53l38 27l131 -248q-7 -6 -20 -16.5t-57.5 -37t-93 -47t-124.5 -37t-155 -16.5q-137 0 -249 46.5t-183 124.5t-109.5 176.5
t-38.5 205.5zM426 662h309q0 62 -39 106.5t-100 44.5q-71 0 -113 -42.5t-57 -108.5zM315 1200v230h564v-230h-564z" />
    <glyph glyph-name="Ebreve" unicode="&#x114;" horiz-adv-x="1204" 
d="M172 0v1464h918v-307h-560v-266h447v-307h-447v-277h588v-307h-946zM647 1548q-149 0 -252.5 80t-103.5 217v21h239v-23q0 -57 35.5 -88t81.5 -31t81.5 31t35.5 88v23h240v-21q0 -137 -103.5 -217t-253.5 -80z" />
    <glyph glyph-name="ebreve" unicode="&#x115;" horiz-adv-x="1153" 
d="M55 528q0 155 65.5 279.5t191.5 198t292 73.5q228 0 358 -142t130 -368l-9 -110h-665q19 -92 87.5 -140.5t158.5 -48.5q68 0 140.5 27t111.5 53l38 27l131 -248q-7 -6 -20 -16.5t-57.5 -37t-93 -47t-124.5 -37t-155 -16.5q-137 0 -249 46.5t-183 124.5t-109.5 176.5
t-38.5 205.5zM426 662h309q0 62 -39 106.5t-100 44.5q-71 0 -113 -42.5t-57 -108.5zM596 1147q-149 0 -252.5 80t-103.5 217v20h239v-22q0 -57 35.5 -88t81.5 -31t81.5 31t35.5 88v22h239v-20q0 -137 -103.5 -217t-252.5 -80z" />
    <glyph glyph-name="Edotaccent" unicode="&#x116;" horiz-adv-x="1204" 
d="M172 0v1464h918v-307h-560v-266h447v-307h-447v-277h588v-307h-946zM502 1595v271h293v-271h-293z" />
    <glyph glyph-name="edotaccent" unicode="&#x117;" horiz-adv-x="1153" 
d="M55 528q0 155 65.5 279.5t191.5 198t292 73.5q228 0 358 -142t130 -368l-9 -110h-665q19 -92 87.5 -140.5t158.5 -48.5q68 0 140.5 27t111.5 53l38 27l131 -248q-7 -6 -20 -16.5t-57.5 -37t-93 -47t-124.5 -37t-155 -16.5q-137 0 -249 46.5t-183 124.5t-109.5 176.5
t-38.5 205.5zM426 662h309q0 62 -39 106.5t-100 44.5q-71 0 -113 -42.5t-57 -108.5zM451 1194v270h292v-270h-292z" />
    <glyph glyph-name="Eogonek" unicode="&#x118;" horiz-adv-x="1204" 
d="M172 0v1464h918v-307h-560v-266h447v-307h-447v-277h588v-307q-88 -83 -88 -125q0 -20 19.5 -32.5t38.5 -15.5l20 -3l-86 -254q-6 1 -15.5 2t-38 7.5t-54 15t-57 25t-54 36.5t-38 50.5t-15.5 66.5q0 110 135 223v4h-713z" />
    <glyph glyph-name="eogonek" unicode="&#x119;" horiz-adv-x="1157" 
d="M55 528q0 155 65.5 279.5t191.5 198t292 73.5q228 0 358 -142t130 -368l-9 -110h-665q19 -92 87.5 -140.5t158.5 -48.5q68 0 140.5 27t111.5 53l38 27l129 -246q-17 -18 -59.5 -51t-74.5 -59t-58.5 -66t-26.5 -80q0 -20 19.5 -32.5t38.5 -15.5l20 -3l-86 -254
q-6 1 -15.5 2t-38 7.5t-54 15t-57 25t-54 36.5t-38 50.5t-15.5 66.5q0 104 125 204v5q-47 -7 -74 -7q-137 0 -249 46.5t-183 124.5t-109.5 176.5t-38.5 205.5zM426 662h309q0 62 -39 106.5t-100 44.5q-71 0 -113 -42.5t-57 -108.5z" />
    <glyph glyph-name="Ecaron" unicode="&#x11a;" horiz-adv-x="1204" 
d="M172 0v1464h918v-307h-560v-266h447v-307h-447v-277h588v-307h-946zM475 1559l-203 307h277l96 -168h4l96 168h277l-203 -307h-344z" />
    <glyph glyph-name="ecaron" unicode="&#x11b;" horiz-adv-x="1153" 
d="M55 528q0 155 65.5 279.5t191.5 198t292 73.5q228 0 358 -142t130 -368l-9 -110h-665q19 -92 87.5 -140.5t158.5 -48.5q68 0 140.5 27t111.5 53l38 27l131 -248q-7 -6 -20 -16.5t-57.5 -37t-93 -47t-124.5 -37t-155 -16.5q-137 0 -249 46.5t-183 124.5t-109.5 176.5
t-38.5 205.5zM426 662h309q0 62 -39 106.5t-100 44.5q-71 0 -113 -42.5t-57 -108.5zM424 1157l-203 307h277l96 -168h4l96 168h277l-203 -307h-344z" />
    <glyph glyph-name="Gcircumflex" unicode="&#x11c;" horiz-adv-x="1576" 
d="M74 735q0 158 58 297.5t158.5 240t244 158.5t307.5 58q105 0 201.5 -20t159.5 -48.5t111 -57.5t70 -49l21 -20l-172 -268q-6 5 -17.5 14.5t-48 32.5t-76 41t-98 32.5t-116.5 14.5q-111 0 -196.5 -33.5t-136 -92t-75.5 -131t-25 -156.5q0 -102 33.5 -187t91 -140.5
t134 -86.5t161.5 -31q48 0 96.5 11t83 26.5t62 31.5t41.5 27l14 11v112h-207v305h525v-827h-299v41l2 61h-4q-6 -5 -17 -13.5t-48.5 -30.5t-79 -39t-107 -30.5t-133.5 -13.5q-141 0 -270.5 52.5t-229.5 147t-159.5 240.5t-59.5 320zM446 1559l203 307h344l203 -307h-276
l-97 167h-4l-96 -167h-277z" />
    <glyph glyph-name="gcircumflex" unicode="&#x11d;" horiz-adv-x="1288" 
d="M262 -68q15 -8 41 -19t104 -29.5t152 -18.5q108 0 176 47.5t68 155.5v34l2 39h-4q-91 -110 -264 -110q-115 0 -207.5 44.5t-150 119.5t-88 169t-30.5 197t30 194.5t87 164.5t149 116t208 43q54 0 103.5 -10.5t81 -25.5t56 -30t34.5 -25l11 -11h6q-2 12 -2 24v54h332v-959
q0 -112 -34.5 -202.5t-92 -149.5t-135.5 -99t-161 -57.5t-173 -17.5q-103 0 -211.5 26.5t-187.5 67.5zM621 326q81 0 135.5 52.5t54.5 178.5q0 67 -16.5 113.5t-47 70t-64.5 33.5t-77 10q-91 0 -139.5 -58.5t-48.5 -152.5q0 -106 51.5 -176.5t151.5 -70.5zM244 1157l202 307
h345l202 -307h-276l-96 168h-5l-96 -168h-276z" />
    <glyph glyph-name="Gbreve" unicode="&#x11e;" horiz-adv-x="1576" 
d="M74 735q0 158 58 297.5t158.5 240t244 158.5t307.5 58q105 0 201.5 -20t159.5 -48.5t111 -57.5t70 -49l21 -20l-172 -268q-6 5 -17.5 14.5t-48 32.5t-76 41t-98 32.5t-116.5 14.5q-111 0 -196.5 -33.5t-136 -92t-75.5 -131t-25 -156.5q0 -102 33.5 -187t91 -140.5
t134 -86.5t161.5 -31q48 0 96.5 11t83 26.5t62 31.5t41.5 27l14 11v112h-207v305h525v-827h-299v41l2 61h-4q-6 -5 -17 -13.5t-48.5 -30.5t-79 -39t-107 -30.5t-133.5 -13.5q-141 0 -270.5 52.5t-229.5 147t-159.5 240.5t-59.5 320zM821 1548q-149 0 -252.5 80t-103.5 217
v21h240v-23q0 -57 35 -88t81 -31t81.5 31t35.5 88v23h240v-21q0 -137 -103.5 -217t-253.5 -80z" />
    <glyph glyph-name="gbreve" unicode="&#x11f;" horiz-adv-x="1288" 
d="M262 -68q15 -8 41 -19t104 -29.5t152 -18.5q108 0 176 47.5t68 155.5v34l2 39h-4q-91 -110 -264 -110q-115 0 -207.5 44.5t-150 119.5t-88 169t-30.5 197t30 194.5t87 164.5t149 116t208 43q54 0 103.5 -10.5t81 -25.5t56 -30t34.5 -25l11 -11h6q-2 12 -2 24v54h332v-959
q0 -112 -34.5 -202.5t-92 -149.5t-135.5 -99t-161 -57.5t-173 -17.5q-103 0 -211.5 26.5t-187.5 67.5zM621 326q81 0 135.5 52.5t54.5 178.5q0 67 -16.5 113.5t-47 70t-64.5 33.5t-77 10q-91 0 -139.5 -58.5t-48.5 -152.5q0 -106 51.5 -176.5t151.5 -70.5zM618 1147
q-149 0 -252.5 80t-103.5 217v20h240v-22q0 -57 35 -88t81 -31t81.5 31t35.5 88v22h240v-20q0 -137 -103.5 -217t-253.5 -80z" />
    <glyph glyph-name="Gdotaccent" unicode="&#x120;" horiz-adv-x="1576" 
d="M74 735q0 158 58 297.5t158.5 240t244 158.5t307.5 58q105 0 201.5 -20t159.5 -48.5t111 -57.5t70 -49l21 -20l-172 -268q-6 5 -17.5 14.5t-48 32.5t-76 41t-98 32.5t-116.5 14.5q-111 0 -196.5 -33.5t-136 -92t-75.5 -131t-25 -156.5q0 -102 33.5 -187t91 -140.5
t134 -86.5t161.5 -31q48 0 96.5 11t83 26.5t62 31.5t41.5 27l14 11v112h-207v305h525v-827h-299v41l2 61h-4q-6 -5 -17 -13.5t-48.5 -30.5t-79 -39t-107 -30.5t-133.5 -13.5q-141 0 -270.5 52.5t-229.5 147t-159.5 240.5t-59.5 320zM676 1595v271h293v-271h-293z" />
    <glyph glyph-name="gdotaccent" unicode="&#x121;" horiz-adv-x="1288" 
d="M262 -68q15 -8 41 -19t104 -29.5t152 -18.5q108 0 176 47.5t68 155.5v34l2 39h-4q-91 -110 -264 -110q-115 0 -207.5 44.5t-150 119.5t-88 169t-30.5 197t30 194.5t87 164.5t149 116t208 43q54 0 103.5 -10.5t81 -25.5t56 -30t34.5 -25l11 -11h6q-2 12 -2 24v54h332v-959
q0 -112 -34.5 -202.5t-92 -149.5t-135.5 -99t-161 -57.5t-173 -17.5q-103 0 -211.5 26.5t-187.5 67.5zM621 326q81 0 135.5 52.5t54.5 178.5q0 67 -16.5 113.5t-47 70t-64.5 33.5t-77 10q-91 0 -139.5 -58.5t-48.5 -152.5q0 -106 51.5 -176.5t151.5 -70.5zM473 1194v270h293
v-270h-293z" />
    <glyph glyph-name="Gcommaaccent" unicode="&#x122;" horiz-adv-x="1576" 
d="M74 735q0 158 58 297.5t158.5 240t244 158.5t307.5 58q105 0 201.5 -20t159.5 -48.5t111 -57.5t70 -49l21 -20l-172 -268q-6 5 -17.5 14.5t-48 32.5t-76 41t-98 32.5t-116.5 14.5q-111 0 -196.5 -33.5t-136 -92t-75.5 -131t-25 -156.5q0 -102 33.5 -187t91 -140.5
t134 -86.5t161.5 -31q48 0 96.5 11t83 26.5t62 31.5t41.5 27l14 11v112h-207v305h525v-827h-299v41l2 61h-4q-6 -5 -17 -13.5t-48.5 -30.5t-79 -39t-107 -30.5t-133.5 -13.5q-141 0 -270.5 52.5t-229.5 147t-159.5 240.5t-59.5 320zM647 -100h279q14 -60 14 -119
q0 -97 -57 -211h-252q41 118 41 190q0 66 -25 140z" />
    <glyph glyph-name="gcommaaccent" unicode="&#x123;" horiz-adv-x="1288" 
d="M262 -68q15 -8 41 -19t104 -29.5t152 -18.5q108 0 176 47.5t68 155.5v34l2 39h-4q-91 -110 -264 -110q-115 0 -207.5 44.5t-150 119.5t-88 169t-30.5 197t30 194.5t87 164.5t149 116t208 43q54 0 103.5 -10.5t81 -25.5t56 -30t34.5 -25l11 -11h6q-2 12 -2 24v54h332v-959
q0 -112 -34.5 -202.5t-92 -149.5t-135.5 -99t-161 -57.5t-173 -17.5q-103 0 -211.5 26.5t-187.5 67.5zM621 326q81 0 135.5 52.5t54.5 178.5q0 67 -16.5 113.5t-47 70t-64.5 33.5t-77 10q-91 0 -139.5 -58.5t-48.5 -152.5q0 -106 51.5 -176.5t151.5 -70.5zM764 1147h-277
q-14 57 -14 115q0 92 55 202h252q-41 -115 -41 -182q0 -64 25 -135z" />
    <glyph glyph-name="Hcircumflex" unicode="&#x124;" horiz-adv-x="1593" 
d="M172 0v1464h358v-585h533v585h358v-1464h-358v573h-533v-573h-358zM422 1559l203 307h344l202 -307h-276l-96 167h-4l-97 -167h-276z" />
    <glyph glyph-name="hcircumflex" unicode="&#x125;" horiz-adv-x="1302" 
d="M131 0v1464h354v-463l-4 -90h4q44 78 131 123t191 45q83 0 149.5 -20.5t119.5 -65t81.5 -123t28.5 -186.5v-684h-355v618q0 73 -28.5 106.5t-87.5 33.5q-79 0 -133 -42t-78 -114q-19 -56 -19 -135v-467h-354zM-66 1559l203 307h344l203 -307h-276l-97 167h-4l-96 -167
h-277z" />
    <glyph glyph-name="Hbar" unicode="&#x126;" horiz-adv-x="1658" 
d="M215 0v1059h-135v219h135v186h367v-186h495v186h367v-186h133v-219h-133v-1059h-367v573h-495v-573h-367zM582 879h495v180h-495v-180z" />
    <glyph glyph-name="hbar" unicode="&#x127;" horiz-adv-x="1302" 
d="M131 0v1135h-119v194h119v135h354v-135h275v-194h-275v-134l-4 -90h4q44 78 131 123t191 45q83 0 149.5 -20.5t119.5 -65t81.5 -123t28.5 -186.5v-684h-355v618q0 73 -28.5 106.5t-87.5 33.5q-79 0 -133 -42t-78 -114q-19 -56 -19 -135v-467h-354z" />
    <glyph glyph-name="Itilde" unicode="&#x128;" horiz-adv-x="702" 
d="M172 0v1464h358v-1464h-358zM-59 1559q0 313 262 313q38 0 71.5 -12.5t57 -31t44 -36.5t42.5 -30.5t43 -12.5q76 0 76 117h229q0 -314 -262 -314q-38 0 -71.5 12.5t-57 31t-44 36.5t-42.5 30.5t-43 12.5q-76 0 -76 -116h-229z" />
    <glyph glyph-name="itilde" unicode="&#x129;" horiz-adv-x="616" 
d="M131 0v1055h354v-1055h-354zM-104 1157q0 313 262 313q46 0 87 -19t64.5 -42t52.5 -42t54 -19q76 0 76 116h229q0 -313 -262 -313q-38 0 -71.5 12.5t-57 30.5t-44 36.5t-42.5 31t-43 12.5q-76 0 -76 -117h-229z" />
    <glyph glyph-name="Imacron" unicode="&#x12a;" horiz-adv-x="702" 
d="M172 0v1464h358v-1464h-358zM72 1602v229h563v-229h-563z" />
    <glyph glyph-name="imacron" unicode="&#x12b;" horiz-adv-x="616" 
d="M131 0v1055h354v-1055h-354zM27 1200v230h563v-230h-563z" />
    <glyph glyph-name="Ibreve" unicode="&#x12c;" horiz-adv-x="702" 
d="M172 0v1464h358v-1464h-358zM352 1548q-149 0 -252.5 80t-103.5 217v21h240v-23q0 -57 35 -88t81 -31t81.5 31t35.5 88v23h240v-21q0 -137 -103.5 -217t-253.5 -80z" />
    <glyph glyph-name="ibreve" unicode="&#x12d;" horiz-adv-x="616" 
d="M131 0v1055h354v-1055h-354zM307 1147q-149 0 -252.5 80t-103.5 217v20h239v-22q0 -57 35.5 -88t81.5 -31t81.5 31t35.5 88v22h240v-20q0 -137 -103.5 -217t-253.5 -80z" />
    <glyph glyph-name="Iogonek" unicode="&#x12e;" horiz-adv-x="702" 
d="M172 0v1464h358v-1464q-88 -83 -88 -125q0 -20 19.5 -32.5t38.5 -15.5l20 -3l-86 -254q-6 1 -15.5 2t-38 7.5t-54 15t-57 25t-54 36.5t-38 50.5t-15.5 66.5q0 110 135 223v4h-125z" />
    <glyph glyph-name="iogonek" unicode="&#x12f;" horiz-adv-x="616" 
d="M131 0v1055h354v-1055q-88 -83 -88 -125q0 -20 19.5 -32.5t39.5 -15.5l19 -3l-86 -254q-6 1 -15.5 2t-38 7.5t-54 15t-57 25t-54 36.5t-38 50.5t-15.5 66.5q0 110 135 223v4h-121zM135 1188v276h346v-276h-346z" />
    <glyph glyph-name="Idotaccent" unicode="&#x130;" horiz-adv-x="702" 
d="M172 0v1464h358v-1464h-358zM207 1595v271h293v-271h-293z" />
    <glyph glyph-name="dotlessi" unicode="&#x131;" horiz-adv-x="616" 
d="M131 0v1055h354v-1055h-354z" />
    <glyph glyph-name="IJ" unicode="&#x132;" horiz-adv-x="1425" 
d="M670 -8v323q36 0 74 11.5t76 36.5t62.5 74.5t24.5 115.5v911h367v-915q0 -112 -25.5 -202t-71.5 -149.5t-103 -101t-128 -63.5t-137 -31.5t-139 -9.5zM172 0v1464h358v-1464h-358z" />
    <glyph glyph-name="ij" unicode="&#x133;" horiz-adv-x="1232" 
d="M135 1188v276h346v-276h-346zM131 0v1055h354v-1055h-354zM752 1188v276h346v-276h-346zM748 1055h354v-1082q0 -73 -19 -133.5t-50 -101t-75 -71t-87.5 -48t-94.5 -28t-90.5 -14t-79.5 -3.5q-25 0 -48.5 1.5t-34.5 2.5l-11 2v295q18 -2 45 -2q32 0 60.5 5t60.5 17.5
t51 41.5t19 71v1047z" />
    <glyph glyph-name="Jcircumflex" unicode="&#x134;" horiz-adv-x="1177" 
d="M43 451v106h358v-78q0 -79 29 -123q34 -53 107 -53q59 0 94 39.5t35 116.5v698h-394v307h752v-1013q0 -116 -42 -209.5t-112 -150t-157 -86.5t-181 -30t-180.5 30.5t-156 88t-111 150t-41.5 207.5zM264 1559l203 307h344l203 -307h-277l-96 167h-4l-96 -167h-277z" />
    <glyph glyph-name="jcircumflex" unicode="&#x135;" horiz-adv-x="616" 
d="M131 1055h354v-1082q0 -73 -19 -133.5t-50 -101t-74.5 -71t-87.5 -48t-94.5 -28t-90 -14t-79.5 -3.5q-25 0 -48.5 1.5t-34.5 2.5l-11 2v295q18 -2 45 -2q32 0 60 5t60 17.5t51 41.5t19 71v1047zM-49 1157l203 307h311l203 -307h-260l-97 168h-4l-96 -168h-260z" />
    <glyph glyph-name="Kcommaaccent" unicode="&#x136;" horiz-adv-x="1417" 
d="M172 0v1464h358v-565h148l303 565h385l-395 -700v-4l418 -760h-402l-309 594h-148v-594h-358zM573 -100h279q14 -60 14 -119q0 -97 -57 -211h-252q41 118 41 190q0 66 -25 140z" />
    <glyph glyph-name="kcommaaccent" unicode="&#x137;" horiz-adv-x="1226" 
d="M131 0v1464h354v-757h101l209 348h385l-310 -480v-4l353 -571h-404l-223 410h-111v-410h-354zM489 -100h279q14 -60 14 -119q0 -97 -57 -211h-252q41 118 41 190q0 66 -25 140z" />
    <glyph glyph-name="kgreenlandic" unicode="&#x138;" horiz-adv-x="1228" 
d="M131 0v1055h354v-369h101l215 369h385l-316 -500v-4l340 -551h-409l-205 389h-111v-389h-354z" />
    <glyph glyph-name="Lacute" unicode="&#x139;" horiz-adv-x="1153" 
d="M172 0v1464h358v-1157h598v-307h-956zM205 1559l166 307h350l-242 -307h-274z" />
    <glyph glyph-name="lacute" unicode="&#x13a;" horiz-adv-x="661" 
d="M117 389v1075h354v-1028q0 -77 19.5 -106t78.5 -29l43 2v-307q-49 -6 -106 -6q-45 0 -81.5 3.5t-77.5 14t-73 28t-62.5 48t-50.5 71.5t-32 100.5t-12 133.5zM147 1559l166 307h351l-242 -307h-275z" />
    <glyph glyph-name="Lcommaaccent" unicode="&#x13b;" horiz-adv-x="1153" 
d="M172 0v1464h358v-1157h598v-307h-956zM514 -100h279q14 -60 14 -119q0 -97 -57 -211h-252q41 118 41 190q0 66 -25 140z" />
    <glyph glyph-name="lcommaaccent" unicode="&#x13c;" horiz-adv-x="661" 
d="M117 389v1075h354v-1028q0 -77 19.5 -106t78.5 -29l43 2v-307q-49 -6 -106 -6q-45 0 -81.5 3.5t-77.5 14t-73 28t-62.5 48t-50.5 71.5t-32 100.5t-12 133.5zM231 -100h279q14 -60 14 -119q0 -97 -57 -211h-252q41 118 41 190q0 66 -25 140z" />
    <glyph glyph-name="Lcaron" unicode="&#x13d;" horiz-adv-x="1153" 
d="M172 0v1464h358v-1157h598v-307h-956zM674 1464h278q15 -65 15 -118q0 -95 -58 -211h-252q41 118 41 190q0 68 -24 139z" />
    <glyph glyph-name="lcaron" unicode="&#x13e;" horiz-adv-x="722" 
d="M117 389v1075h354v-1028q0 -77 19.5 -106t78.5 -29l43 2v-307q-49 -6 -106 -6q-45 0 -81.5 3.5t-77.5 14t-73 28t-62.5 48t-50.5 71.5t-32 100.5t-12 133.5zM567 1464h279q14 -60 14 -118q0 -97 -57 -211h-252q41 118 41 190q0 65 -25 139z" />
    <glyph glyph-name="Ldot" unicode="&#x13f;" horiz-adv-x="1153" 
d="M172 0v1464h358v-1157h598v-307h-956zM721 645v336h323v-336h-323z" />
    <glyph glyph-name="ldot" unicode="&#x140;" horiz-adv-x="944" 
d="M117 389v1075h354v-1028q0 -77 19.5 -106t78.5 -29l43 2v-307q-49 -6 -106 -6q-45 0 -81.5 3.5t-77.5 14t-73 28t-62.5 48t-50.5 71.5t-32 100.5t-12 133.5zM639 645v336h324v-336h-324z" />
    <glyph glyph-name="Lslash" unicode="&#x141;" horiz-adv-x="1206" 
d="M119 358v340l106 62v704h359v-499l207 118v-340l-207 -118v-318h598v-307h-957v420z" />
    <glyph glyph-name="lslash" unicode="&#x142;" horiz-adv-x="763" 
d="M82 399v340l102 60v665h355v-463l141 82v-340l-141 -81v-226q0 -77 19.5 -106t78.5 -29l43 2v-307q-50 -6 -107 -6q-45 0 -81.5 3.5t-77.5 14t-73 28t-62.5 48t-50.5 71.5t-32 100.5t-12 133.5v70z" />
    <glyph glyph-name="Nacute" unicode="&#x143;" horiz-adv-x="1581" 
d="M172 0v1464h363l405 -684q25 -43 56 -105.5t49 -103.5l18 -41h4q-16 158 -16 250v684h358v-1464h-360l-408 682q-25 43 -56 105.5t-49 103.5l-18 41h-4q16 -158 16 -250v-682h-358zM643 1559l166 307h350l-241 -307h-275z" />
    <glyph glyph-name="nacute" unicode="&#x144;" horiz-adv-x="1302" 
d="M131 0v1055h340v-92l-4 -66h4q45 76 127.5 129t208.5 53q83 0 149.5 -20.5t119.5 -65t81.5 -123t28.5 -186.5v-684h-355v618q0 73 -28.5 106.5t-87.5 33.5q-80 0 -132.5 -40.5t-76.5 -111.5q-21 -62 -21 -139v-467h-354zM518 1157l166 307h350l-241 -307h-275z" />
    <glyph glyph-name="Ncommaaccent" unicode="&#x145;" horiz-adv-x="1581" 
d="M172 0v1464h363l405 -684q25 -43 56 -105.5t49 -103.5l18 -41h4q-16 158 -16 250v684h358v-1464h-360l-408 682q-25 43 -56 105.5t-49 103.5l-18 41h-4q16 -158 16 -250v-682h-358zM645 -100h279q14 -60 14 -119q0 -97 -57 -211h-252q41 118 41 190q0 66 -25 140z" />
    <glyph glyph-name="ncommaaccent" unicode="&#x146;" horiz-adv-x="1302" 
d="M131 0v1055h340v-92l-4 -66h4q45 76 127.5 129t208.5 53q83 0 149.5 -20.5t119.5 -65t81.5 -123t28.5 -186.5v-684h-355v618q0 73 -28.5 106.5t-87.5 33.5q-80 0 -132.5 -40.5t-76.5 -111.5q-21 -62 -21 -139v-467h-354zM506 -100h278q15 -64 15 -119q0 -95 -58 -211
h-252q41 118 41 190q0 69 -24 140z" />
    <glyph glyph-name="Ncaron" unicode="&#x147;" horiz-adv-x="1581" 
d="M172 0v1464h363l405 -684q25 -43 56 -105.5t49 -103.5l18 -41h4q-16 158 -16 250v684h358v-1464h-360l-408 682q-25 43 -56 105.5t-49 103.5l-18 41h-4q16 -158 16 -250v-682h-358zM618 1559l-202 307h276l96 -168h5l96 168h276l-202 -307h-345z" />
    <glyph glyph-name="ncaron" unicode="&#x148;" horiz-adv-x="1302" 
d="M131 0v1055h340v-92l-4 -66h4q45 76 127.5 129t208.5 53q83 0 149.5 -20.5t119.5 -65t81.5 -123t28.5 -186.5v-684h-355v618q0 73 -28.5 106.5t-87.5 33.5q-80 0 -132.5 -40.5t-76.5 -111.5q-21 -62 -21 -139v-467h-354zM494 1157l-203 307h276l97 -168h4l96 168h276
l-202 -307h-344z" />
    <glyph glyph-name="napostrophe" unicode="&#x149;" horiz-adv-x="1302" 
d="M131 0v1055h340v-92l-4 -66h4q45 76 127.5 129t208.5 53q83 0 149.5 -20.5t119.5 -65t81.5 -123t28.5 -186.5v-684h-355v618q0 73 -28.5 106.5t-87.5 33.5q-80 0 -132.5 -40.5t-76.5 -111.5q-21 -62 -21 -139v-467h-354zM-61 1464h278q14 -60 14 -118q0 -97 -57 -211
h-252q41 118 41 190q0 68 -24 139z" />
    <glyph glyph-name="Eng" unicode="&#x14a;" horiz-adv-x="1581" 
d="M172 0v1464h363l405 -684q25 -43 56 -105.5t49 -103.5l18 -41h4q-16 158 -16 250v684h358v-1327q0 -112 -25.5 -202t-71.5 -149.5t-103 -101t-128 -63.5t-137 -31.5t-139 -9.5v324q55 0 132.5 32t98.5 84l-395 662q-25 43 -56 105.5t-49 103.5l-18 41h-4q16 -158 16 -250
v-682h-358z" />
    <glyph glyph-name="eng" unicode="&#x14b;" horiz-adv-x="1302" 
d="M131 0v1055h340v-133l-2 -25h4q109 182 334 182q83 0 149.5 -20.5t119.5 -65t81.5 -123t28.5 -186.5v-711q0 -73 -19 -133.5t-50 -101t-75 -71t-87.5 -48t-94.5 -28t-90.5 -14t-79.5 -3.5q-25 0 -48.5 1.5t-34.5 2.5l-11 2v295q18 -2 45 -2q32 0 60 5t60 17.5t51 41.5
t19 71v610q0 73 -28.5 106.5t-87.5 33.5q-80 0 -132.5 -40.5t-76.5 -111.5q-21 -62 -21 -139v-467h-354z" />
    <glyph glyph-name="Omacron" unicode="&#x14c;" horiz-adv-x="1675" 
d="M72 741q0 155 58 293.5t158.5 238.5t243.5 158t306 58t306 -58t243.5 -158t158.5 -238.5t58 -293.5q0 -213 -98.5 -388t-274.5 -276.5t-393 -101.5t-393 101.5t-274.5 276.5t-98.5 388zM442 741q0 -186 115.5 -312t280.5 -126t280 126t115 312q0 179 -115 299.5
t-280 120.5q-166 0 -281 -120.5t-115 -299.5zM557 1602v229h563v-229h-563z" />
    <glyph glyph-name="omacron" unicode="&#x14d;" horiz-adv-x="1302" 
d="M53 524q0 122 47 226.5t127 176t189.5 112t232.5 40.5q167 0 303 -68.5t216.5 -196.5t80.5 -290q0 -161 -80.5 -287.5t-216 -194t-301.5 -67.5t-301.5 67.5t-216 194t-80.5 287.5zM412 524q0 -115 69.5 -184.5t169.5 -69.5t170 69.5t70 184.5q0 117 -70 188.5t-170 71.5
t-169.5 -71.5t-69.5 -188.5zM371 1200v230h563v-230h-563z" />
    <glyph glyph-name="Obreve" unicode="&#x14e;" horiz-adv-x="1675" 
d="M72 741q0 155 58 293.5t158.5 238.5t243.5 158t306 58t306 -58t243.5 -158t158.5 -238.5t58 -293.5q0 -213 -98.5 -388t-274.5 -276.5t-393 -101.5t-393 101.5t-274.5 276.5t-98.5 388zM442 741q0 -186 115.5 -312t280.5 -126t280 126t115 312q0 179 -115 299.5
t-280 120.5q-166 0 -281 -120.5t-115 -299.5zM838 1548q-150 0 -253.5 80t-103.5 217v21h240v-23q0 -57 35.5 -88t81.5 -31t81 31t35 88v23h240v-21q0 -137 -103.5 -217t-252.5 -80z" />
    <glyph glyph-name="obreve" unicode="&#x14f;" horiz-adv-x="1302" 
d="M53 524q0 122 47 226.5t127 176t189.5 112t232.5 40.5q167 0 303 -68.5t216.5 -196.5t80.5 -290q0 -161 -80.5 -287.5t-216 -194t-301.5 -67.5t-301.5 67.5t-216 194t-80.5 287.5zM412 524q0 -115 69.5 -184.5t169.5 -69.5t170 69.5t70 184.5q0 117 -70 188.5t-170 71.5
t-169.5 -71.5t-69.5 -188.5zM651 1147q-149 0 -252.5 80t-103.5 217v20h240v-22q0 -57 35 -88t81 -31t81.5 31t35.5 88v22h240v-20q0 -137 -103.5 -217t-253.5 -80z" />
    <glyph glyph-name="Ohungarumlaut" unicode="&#x150;" horiz-adv-x="1675" 
d="M72 741q0 155 58 293.5t158.5 238.5t243.5 158t306 58t306 -58t243.5 -158t158.5 -238.5t58 -293.5q0 -213 -98.5 -388t-274.5 -276.5t-393 -101.5t-393 101.5t-274.5 276.5t-98.5 388zM442 741q0 -186 115.5 -312t280.5 -126t280 126t115 312q0 179 -115 299.5
t-280 120.5q-166 0 -281 -120.5t-115 -299.5zM891 1559l166 307h334l-242 -307h-258zM465 1559l156 307h284l-162 -307h-278z" />
    <glyph glyph-name="ohungarumlaut" unicode="&#x151;" horiz-adv-x="1302" 
d="M53 524q0 122 47 226.5t127 176t189.5 112t232.5 40.5q167 0 303 -68.5t216.5 -196.5t80.5 -290q0 -161 -80.5 -287.5t-216 -194t-301.5 -67.5t-301.5 67.5t-216 194t-80.5 287.5zM412 524q0 -115 69.5 -184.5t169.5 -69.5t170 69.5t70 184.5q0 117 -70 188.5t-170 71.5
t-169.5 -71.5t-69.5 -188.5zM705 1157l165 307h334l-241 -307h-258zM279 1157l155 307h285l-162 -307h-278z" />
    <glyph glyph-name="OE" unicode="&#x152;" horiz-adv-x="2031" 
d="M66 735q0 206 106 378t286.5 270t393.5 98q76 0 153.5 -8.5t116.5 -8.5h795v-307h-559v-266h446v-307h-446v-277h590v-307h-826q-39 0 -116.5 -8t-153.5 -8q-213 0 -393.5 99.5t-286.5 272.5t-106 379zM436 735q0 -185 121 -315.5t295 -130.5q40 0 77 3.5t53 7.5l17 3
v858q-57 15 -147 15q-174 0 -295 -128.5t-121 -312.5z" />
    <glyph glyph-name="oe" unicode="&#x153;" horiz-adv-x="1986" 
d="M53 524q0 162 78.5 290t211 196.5t294.5 68.5q140 0 232.5 -42t174.5 -122h5q73 80 160.5 122t228.5 42q152 0 263.5 -66.5t167.5 -181t56 -262.5l-8 -110h-664q20 -89 88 -139t156 -50q68 0 140.5 27t111.5 53l39 27l131 -248q-7 -6 -20 -16.5t-57.5 -37t-93.5 -47
t-125 -37t-155 -16.5q-150 0 -242.5 45.5t-168.5 129.5h-4q-54 -55 -105 -90t-131 -60t-178 -25q-163 0 -296 67.5t-211.5 194t-78.5 287.5zM1260 662h309q-2 59 -39 105t-96 46q-74 0 -116.5 -42.5t-57.5 -108.5zM410 524q0 -115 69.5 -184.5t169.5 -69.5t170 69.5
t70 184.5q0 117 -70 188.5t-170 71.5t-169.5 -71.5t-69.5 -188.5z" />
    <glyph glyph-name="Racute" unicode="&#x154;" horiz-adv-x="1402" 
d="M172 0v1464h510q199 0 285 -34q127 -48 198.5 -158.5t71.5 -267.5q0 -124 -57.5 -235.5t-161.5 -164.5v-4q20 -27 55 -88l285 -512h-400l-260 494h-168v-494h-358zM530 801h156q87 0 136.5 46.5t49.5 133.5q0 90 -46.5 133t-174.5 43h-121v-356zM520 1559l166 307h350
l-241 -307h-275z" />
    <glyph glyph-name="racute" unicode="&#x155;" horiz-adv-x="880" 
d="M131 0v1055h340v-178l-4 -66h4q35 111 128 186.5t208 75.5l41 -4v-348q-29 6 -72 6q-37 0 -72 -7t-75.5 -25t-73.5 -57t-51 -95q-19 -62 -19 -144v-399h-354zM377 1155l166 307h350l-242 -307h-274z" />
    <glyph glyph-name="Rcommaaccent" unicode="&#x156;" horiz-adv-x="1402" 
d="M172 0v1464h510q199 0 285 -34q127 -48 198.5 -158.5t71.5 -267.5q0 -124 -57.5 -235.5t-161.5 -164.5v-4q20 -27 55 -88l285 -512h-400l-260 494h-168v-494h-358zM530 801h156q87 0 136.5 46.5t49.5 133.5q0 90 -46.5 133t-174.5 43h-121v-356zM565 -100h279
q14 -60 14 -119q0 -97 -57 -211h-252q41 118 41 190q0 66 -25 140z" />
    <glyph glyph-name="rcommaaccent" unicode="&#x157;" horiz-adv-x="880" 
d="M131 0v1055h340v-178l-4 -66h4q35 111 128 186.5t208 75.5l41 -4v-348q-29 6 -72 6q-37 0 -72 -7t-75.5 -25t-73.5 -57t-51 -95q-19 -62 -19 -144v-399h-354zM164 -100h278q15 -64 15 -119q0 -95 -58 -211h-252q41 118 41 190q0 69 -24 140z" />
    <glyph glyph-name="Rcaron" unicode="&#x158;" horiz-adv-x="1402" 
d="M172 0v1464h510q199 0 285 -34q127 -48 198.5 -158.5t71.5 -267.5q0 -124 -57.5 -235.5t-161.5 -164.5v-4q20 -27 55 -88l285 -512h-400l-260 494h-168v-494h-358zM530 801h156q87 0 136.5 46.5t49.5 133.5q0 90 -46.5 133t-174.5 43h-121v-356zM496 1559l-203 307h276
l97 -168h4l96 168h276l-202 -307h-344z" />
    <glyph glyph-name="rcaron" unicode="&#x159;" horiz-adv-x="880" 
d="M131 0v1055h340v-178l-4 -66h4q35 111 128 186.5t208 75.5l41 -4v-348q-29 6 -72 6q-37 0 -72 -7t-75.5 -25t-73.5 -57t-51 -95q-19 -62 -19 -144v-399h-354zM352 1155l-202 307h276l96 -168h4l97 168h276l-203 -307h-344z" />
    <glyph glyph-name="Sacute" unicode="&#x15a;" horiz-adv-x="1187" 
d="M63 184l189 273q7 -6 19 -16.5t50.5 -36.5t78 -46t95 -36.5t107.5 -16.5q64 0 109 28t45 89q0 35 -36.5 65t-94.5 55.5t-128.5 53.5t-141 67t-128.5 87.5t-94.5 123t-36.5 166.5q0 199 148 324t370 125q88 0 169 -17t133.5 -41.5t92.5 -49t58 -41.5l18 -17l-151 -293
q-6 5 -17 14t-46 31t-71 39t-88.5 31t-101.5 14q-63 0 -109 -29t-46 -86q0 -37 36.5 -67t94.5 -54.5t128 -51t140.5 -64t128.5 -85t94.5 -123t36.5 -169.5q0 -92 -35 -174t-99 -145t-163 -99.5t-219 -36.5q-96 0 -186.5 21.5t-151 52.5t-107.5 61.5t-69 51.5zM453 1559
l165 307h351l-242 -307h-274z" />
    <glyph glyph-name="sacute" unicode="&#x15b;" horiz-adv-x="964" 
d="M49 131l152 238q5 -4 13.5 -11.5t37 -26t58 -32.5t73 -25.5t86.5 -11.5q44 0 74 12t30 37q0 16 -21 31.5t-56 28.5t-79 31t-90.5 37.5t-90.5 50t-79 66.5t-56 88t-21 114q0 146 123 233.5t311 87.5q69 0 132.5 -12.5t105 -30.5t73 -35.5t45.5 -30.5l15 -12l-121 -251
l-12 9t-33.5 21t-53 26t-69 20.5t-82.5 9.5q-44 0 -74 -13t-30 -39q0 -14 21 -27.5t56 -25.5t79 -29t90.5 -36t90.5 -49t79 -65t56 -87t21 -113q0 -141 -117.5 -237.5t-314.5 -96.5q-74 0 -144.5 16t-118.5 39t-85.5 46t-55.5 39zM332 1157l166 307h350l-242 -307h-274z" />
    <glyph glyph-name="Scircumflex" unicode="&#x15c;" horiz-adv-x="1187" 
d="M63 184l189 273q7 -6 19 -16.5t50.5 -36.5t78 -46t95 -36.5t107.5 -16.5q64 0 109 28t45 89q0 35 -36.5 65t-94.5 55.5t-128.5 53.5t-141 67t-128.5 87.5t-94.5 123t-36.5 166.5q0 199 148 324t370 125q88 0 169 -17t133.5 -41.5t92.5 -49t58 -41.5l18 -17l-151 -293
q-6 5 -17 14t-46 31t-71 39t-88.5 31t-101.5 14q-63 0 -109 -29t-46 -86q0 -37 36.5 -67t94.5 -54.5t128 -51t140.5 -64t128.5 -85t94.5 -123t36.5 -169.5q0 -92 -35 -174t-99 -145t-163 -99.5t-219 -36.5q-96 0 -186.5 21.5t-151 52.5t-107.5 61.5t-69 51.5zM225 1559
l203 307h344l203 -307h-277l-96 167h-4l-96 -167h-277z" />
    <glyph glyph-name="scircumflex" unicode="&#x15d;" horiz-adv-x="964" 
d="M49 131l152 238q5 -4 13.5 -11.5t37 -26t58 -32.5t73 -25.5t86.5 -11.5q44 0 74 12t30 37q0 16 -21 31.5t-56 28.5t-79 31t-90.5 37.5t-90.5 50t-79 66.5t-56 88t-21 114q0 146 123 233.5t311 87.5q69 0 132.5 -12.5t105 -30.5t73 -35.5t45.5 -30.5l15 -12l-121 -251
l-12 9t-33.5 21t-53 26t-69 20.5t-82.5 9.5q-44 0 -74 -13t-30 -39q0 -14 21 -27.5t56 -25.5t79 -29t90.5 -36t90.5 -49t79 -65t56 -87t21 -113q0 -141 -117.5 -237.5t-314.5 -96.5q-74 0 -144.5 16t-118.5 39t-85.5 46t-55.5 39zM106 1157l203 307h344l203 -307h-276
l-97 168h-4l-96 -168h-277z" />
    <glyph glyph-name="Scedilla" unicode="&#x15e;" horiz-adv-x="1187" 
d="M63 184l189 273q7 -6 19 -16.5t50.5 -36.5t78 -46t95 -36.5t107.5 -16.5q64 0 109 28t45 89q0 35 -36.5 65t-94.5 55.5t-128.5 53.5t-141 67t-128.5 87.5t-94.5 123t-36.5 166.5q0 199 148 324t370 125q88 0 169 -17t133.5 -41.5t92.5 -49t58 -41.5l18 -17l-151 -293
q-6 5 -17 14t-46 31t-71 39t-88.5 31t-101.5 14q-63 0 -109 -29t-46 -86q0 -37 36.5 -67t94.5 -54.5t128 -51t140.5 -64t128.5 -85t94.5 -123t36.5 -169.5q0 -173 -115.5 -299t-316.5 -149l-12 -56q67 -7 110 -47t43 -117q0 -101 -69 -146.5t-170 -45.5q-35 0 -71.5 4.5
t-55.5 9.5l-19 4v179q47 -21 92 -21q78 0 78 47q0 43 -84 43l-53 -4l45 148q-82 8 -159 32t-128 52.5t-90.5 56t-57.5 45.5z" />
    <glyph glyph-name="scedilla" unicode="&#x15f;" horiz-adv-x="964" 
d="M49 131l152 238q5 -4 13.5 -11.5t37 -26t58 -32.5t73 -25.5t86.5 -11.5q44 0 74 12t30 37q0 16 -21 31.5t-56 28.5t-79 31t-90.5 37.5t-90.5 50t-79 66.5t-56 88t-21 114q0 146 123 233.5t311 87.5q69 0 132.5 -12.5t105 -30.5t73 -35.5t45.5 -30.5l15 -12l-121 -251
l-12 9t-33.5 21t-53 26t-69 20.5t-82.5 9.5q-44 0 -74 -13t-30 -39q0 -14 21 -27.5t56 -25.5t79 -29t90.5 -36t90.5 -49t79 -65t56 -87t21 -113q0 -127 -96 -219t-262 -110l-13 -54q68 -7 111 -47t43 -117q0 -101 -69.5 -146.5t-170.5 -45.5q-35 0 -71 4.5t-55 9.5l-19 4
v179q47 -21 92 -21q78 0 78 47q0 43 -84 43l-53 -4l47 150q-59 8 -114.5 26.5t-93 39t-67 39.5t-43.5 31z" />
    <glyph glyph-name="Scaron" unicode="&#x160;" horiz-adv-x="1187" 
d="M63 184l189 273q7 -6 19 -16.5t50.5 -36.5t78 -46t95 -36.5t107.5 -16.5q64 0 109 28t45 89q0 35 -36.5 65t-94.5 55.5t-128.5 53.5t-141 67t-128.5 87.5t-94.5 123t-36.5 166.5q0 199 148 324t370 125q88 0 169 -17t133.5 -41.5t92.5 -49t58 -41.5l18 -17l-151 -293
q-6 5 -17 14t-46 31t-71 39t-88.5 31t-101.5 14q-63 0 -109 -29t-46 -86q0 -37 36.5 -67t94.5 -54.5t128 -51t140.5 -64t128.5 -85t94.5 -123t36.5 -169.5q0 -92 -35 -174t-99 -145t-163 -99.5t-219 -36.5q-96 0 -186.5 21.5t-151 52.5t-107.5 61.5t-69 51.5zM428 1559
l-203 307h277l96 -168h4l96 168h277l-203 -307h-344z" />
    <glyph glyph-name="scaron" unicode="&#x161;" horiz-adv-x="964" 
d="M49 131l152 238q5 -4 13.5 -11.5t37 -26t58 -32.5t73 -25.5t86.5 -11.5q44 0 74 12t30 37q0 16 -21 31.5t-56 28.5t-79 31t-90.5 37.5t-90.5 50t-79 66.5t-56 88t-21 114q0 146 123 233.5t311 87.5q69 0 132.5 -12.5t105 -30.5t73 -35.5t45.5 -30.5l15 -12l-121 -251
l-12 9t-33.5 21t-53 26t-69 20.5t-82.5 9.5q-44 0 -74 -13t-30 -39q0 -14 21 -27.5t56 -25.5t79 -29t90.5 -36t90.5 -49t79 -65t56 -87t21 -113q0 -141 -117.5 -237.5t-314.5 -96.5q-74 0 -144.5 16t-118.5 39t-85.5 46t-55.5 39zM309 1157l-203 307h277l96 -168h4l97 168
h276l-203 -307h-344z" />
    <glyph glyph-name="Tcommaaccent" unicode="&#x162;" horiz-adv-x="1263" 
d="M453 0v1157h-445v307h1247v-307h-444v-1157h-96l-19 -74q68 -7 111 -47t43 -117q0 -101 -69.5 -146.5t-170.5 -45.5q-35 0 -71 4.5t-55 9.5l-19 4v179q47 -21 92 -21q78 0 78 47q0 43 -84 43l-53 -4l53 168h-98z" />
    <glyph glyph-name="tcommaaccent" unicode="&#x163;" horiz-adv-x="851" 
d="M186 389v371h-135v276h146v303h344v-303h221v-276h-221v-324q0 -42 19 -71t50.5 -41.5t59.5 -17.5t59 -5l47 2v-307q-39 -6 -96 -6q-68 0 -127 10l-16 -74q67 -7 110 -47t43 -117q0 -101 -69 -146.5t-170 -45.5q-35 0 -71.5 4.5t-55.5 9.5l-19 4v179q47 -21 92 -21
q78 0 78 47q0 43 -84 43l-53 -4l65 207q-217 93 -217 350z" />
    <glyph glyph-name="Tcaron" unicode="&#x164;" horiz-adv-x="1263" 
d="M453 0v1157h-445v307h1247v-307h-444v-1157h-358zM459 1559l-203 307h276l97 -168h4l96 168h277l-203 -307h-344z" />
    <glyph glyph-name="tcaron" unicode="&#x165;" horiz-adv-x="849" 
d="M184 389v371h-135v276h146v303h344v-303h221v-276h-221v-324q0 -42 19 -71t50.5 -41.5t59.5 -17.5t59 -5l47 2v-307q-39 -6 -96 -6q-41 0 -80.5 3.5t-90.5 14t-94.5 28t-86.5 48t-73.5 71t-49.5 101t-19 133.5zM625 1464h278q15 -62 15 -110q0 -89 -58 -199h-252
q41 112 41 178t-24 131z" />
    <glyph glyph-name="Tbar" unicode="&#x166;" horiz-adv-x="1310" 
d="M184 557v260h291v340h-444v307h1247v-307h-444v-340h303v-260h-303v-557h-359v557h-291z" />
    <glyph glyph-name="tbar" unicode="&#x167;" horiz-adv-x="897" 
d="M61 428v219h158v113h-135v276h145v303h344v-303h222v-276h-222v-113h199v-219h-199v-10q0 -35 19 -59.5t50.5 -36t60.5 -16.5t59 -5l47 2v-307q-39 -6 -96 -6q-41 0 -80.5 3.5t-90.5 14t-94.5 28t-86.5 48t-73.5 71t-49.5 101t-19 133.5v39h-158z" />
    <glyph glyph-name="Utilde" unicode="&#x168;" horiz-adv-x="1527" 
d="M152 539v925h358v-925q0 -114 68 -175t186 -61t186 61t68 175v925h358v-925q0 -164 -75 -292t-214 -200t-321 -72q-277 0 -445.5 157t-168.5 407zM352 1559q0 313 262 313q38 0 71.5 -12.5t57 -31t44 -36.5t42.5 -30.5t43 -12.5q76 0 76 117h230q0 -314 -263 -314
q-38 0 -71.5 12.5t-57 31t-44 36.5t-42.5 30.5t-43 12.5q-75 0 -75 -116h-230z" />
    <glyph glyph-name="utilde" unicode="&#x169;" horiz-adv-x="1292" 
d="M117 371v684h354v-619q0 -139 113 -139q109 0 166 82.5t57 208.5v467h354v-1055h-340v92l4 66h-4q-42 -84 -132 -133.5t-197 -49.5q-82 0 -147.5 20.5t-118 65.5t-81 123.5t-28.5 186.5zM227 1157q0 313 262 313q46 0 87 -19t65 -42t53 -42t54 -19q75 0 75 116h230
q0 -313 -262 -313q-46 0 -87 19t-65 42.5t-53 42.5t-54 19q-75 0 -75 -117h-230z" />
    <glyph glyph-name="Umacron" unicode="&#x16a;" horiz-adv-x="1527" 
d="M152 539v925h358v-925q0 -114 68 -175t186 -61t186 61t68 175v925h358v-925q0 -164 -75 -292t-214 -200t-321 -72q-277 0 -445.5 157t-168.5 407zM483 1602v229h564v-229h-564z" />
    <glyph glyph-name="umacron" unicode="&#x16b;" horiz-adv-x="1292" 
d="M117 371v684h354v-619q0 -139 113 -139q109 0 166 82.5t57 208.5v467h354v-1055h-340v92l4 66h-4q-42 -84 -132 -133.5t-197 -49.5q-82 0 -147.5 20.5t-118 65.5t-81 123.5t-28.5 186.5zM358 1200v230h564v-230h-564z" />
    <glyph glyph-name="Ubreve" unicode="&#x16c;" horiz-adv-x="1527" 
d="M152 539v925h358v-925q0 -114 68 -175t186 -61t186 61t68 175v925h358v-925q0 -164 -75 -292t-214 -200t-321 -72q-277 0 -445.5 157t-168.5 407zM764 1548q-149 0 -252.5 80t-103.5 217v21h239v-23q0 -57 35.5 -88t81.5 -31t81.5 31t35.5 88v23h239v-21
q0 -137 -103.5 -217t-252.5 -80z" />
    <glyph glyph-name="ubreve" unicode="&#x16d;" horiz-adv-x="1292" 
d="M117 371v684h354v-619q0 -139 113 -139q109 0 166 82.5t57 208.5v467h354v-1055h-340v92l4 66h-4q-42 -84 -132 -133.5t-197 -49.5q-82 0 -147.5 20.5t-118 65.5t-81 123.5t-28.5 186.5zM639 1147q-149 0 -252.5 80t-103.5 217v20h239v-22q0 -57 35.5 -88t81.5 -31
t81.5 31t35.5 88v22h239v-20q0 -137 -103.5 -217t-252.5 -80z" />
    <glyph glyph-name="Uring" unicode="&#x16e;" horiz-adv-x="1527" 
d="M152 539v925h358v-925q0 -114 68 -175t186 -61t186 61t68 175v925h358v-925q0 -164 -75 -292t-214 -200t-321 -72q-277 0 -445.5 157t-168.5 407zM764 1530q-91 0 -157 44.5t-66 129.5t66.5 130.5t156.5 45.5t157.5 -45.5t67.5 -130.5q0 -57 -34.5 -98t-83.5 -58.5
t-107 -17.5zM764 1632q32 0 52 20t20 52q0 34 -20 54t-52 20q-31 0 -50.5 -20.5t-19.5 -53.5q0 -32 19 -52t51 -20z" />
    <glyph glyph-name="uring" unicode="&#x16f;" horiz-adv-x="1292" 
d="M117 371v684h354v-619q0 -139 113 -139q109 0 166 82.5t57 208.5v467h354v-1055h-340v92l4 66h-4q-42 -84 -132 -133.5t-197 -49.5q-82 0 -147.5 20.5t-118 65.5t-81 123.5t-28.5 186.5zM639 1128q-90 0 -156.5 45t-66.5 130t66.5 130.5t156.5 45.5t157.5 -45.5
t67.5 -130.5t-67 -130t-158 -45zM639 1231q32 0 52 20t20 52q0 33 -19.5 53t-52.5 20q-31 0 -50.5 -20t-19.5 -53q0 -32 19 -52t51 -20z" />
    <glyph glyph-name="Uhungarumlaut" unicode="&#x170;" horiz-adv-x="1527" 
d="M152 539v925h358v-925q0 -114 68 -175t186 -61t186 61t68 175v925h358v-925q0 -164 -75 -292t-214 -200t-321 -72q-277 0 -445.5 157t-168.5 407zM817 1559l166 307h334l-242 -307h-258zM391 1559l156 307h284l-161 -307h-279z" />
    <glyph glyph-name="uhungarumlaut" unicode="&#x171;" horiz-adv-x="1292" 
d="M117 371v684h354v-619q0 -139 113 -139q109 0 166 82.5t57 208.5v467h354v-1055h-340v92l4 66h-4q-42 -84 -132 -133.5t-197 -49.5q-82 0 -147.5 20.5t-118 65.5t-81 123.5t-28.5 186.5zM692 1157l166 307h334l-242 -307h-258zM266 1157l156 307h285l-162 -307h-279z" />
    <glyph glyph-name="Uogonek" unicode="&#x172;" horiz-adv-x="1527" 
d="M649 -227q0 108 105 198v4q-273 4 -437.5 160t-164.5 404v925h358v-925q0 -114 68 -175t186 -61t186 61t68 175v925h358v-925q0 -57 -9 -108t-22.5 -90.5t-37 -78t-44 -64t-52.5 -55.5t-53 -47t-54 -43l-38 -28.5t-37.5 -28.5t-31 -25t-28.5 -25.5t-20 -23t-15 -25
t-4 -22.5q0 -20 19.5 -32.5t38.5 -15.5l20 -3l-86 -254q-6 1 -15.5 2t-38 7.5t-54.5 15t-57.5 25t-54 36.5t-38 50.5t-15.5 66.5z" />
    <glyph glyph-name="uogonek" unicode="&#x173;" horiz-adv-x="1292" 
d="M793 -227q0 110 135 223v4h-107v92l4 66h-4q-42 -84 -132 -133.5t-197 -49.5q-82 0 -147.5 20.5t-118 65.5t-81 123.5t-28.5 186.5v684h354v-619q0 -139 113 -139q109 0 166 82.5t57 208.5v467h354v-1055q-88 -83 -88 -125q0 -20 19.5 -32.5t39.5 -15.5l19 -3l-86 -254
q-6 1 -15.5 2t-38 7.5t-54 15t-57 25t-54 36.5t-38 50.5t-15.5 66.5z" />
    <glyph glyph-name="Wcircumflex" unicode="&#x174;" horiz-adv-x="2043" 
d="M399 0l-356 1464h377l184 -915q8 -40 12.5 -78.5t5.5 -56.5l1 -19h4q1 64 24 154l226 915h288l219 -915q10 -40 16.5 -78.5t7.5 -56.5l1 -19h4q1 64 19 154l200 915h371l-371 -1464h-399l-184 739q-10 42 -17.5 85t-9.5 65l-2 22h-4q-6 -78 -29 -172l-184 -739h-404z
M641 1559l203 307h344l203 -307h-277l-96 167h-4l-96 -167h-277z" />
    <glyph glyph-name="wcircumflex" unicode="&#x175;" horiz-adv-x="1720" 
d="M322 0l-295 1055h372l131 -623q5 -25 8.5 -52.5t3.5 -42.5l1 -15h4q4 53 18 110l146 623h303l145 -623q6 -25 10.5 -52.5t5.5 -42.5l1 -15h4q2 53 14 110l131 623h369l-295 -1055h-395l-119 487q-6 25 -11.5 53.5t-7.5 43.5l-2 16h-4q-6 -56 -20 -113l-119 -487h-399z
M487 1157l203 307h344l203 -307h-276l-97 168h-4l-96 -168h-277z" />
    <glyph glyph-name="Ycircumflex" unicode="&#x176;" horiz-adv-x="1308" 
d="M475 0v600l-483 864h407l166 -352q21 -44 43 -97t34 -83l11 -31h4q41 111 88 211l164 352h408l-483 -864v-600h-359zM281 1559l202 307h344l203 -307h-276l-97 167h-4l-96 -167h-276z" />
    <glyph glyph-name="ycircumflex" unicode="&#x177;" horiz-adv-x="1118" 
d="M2 -356l113 260q57 -39 108 -39q126 0 170 106l21 49l-449 1035h402l155 -486q8 -25 18 -66t16 -69l5 -28h4q21 100 35 157l133 492h387l-432 -1168q-62 -165 -181 -241t-259 -76q-62 0 -123.5 18.5t-92.5 37.5zM188 1155l203 307h344l203 -307h-276l-97 168h-4l-96 -168
h-277z" />
    <glyph glyph-name="Ydieresis" unicode="&#x178;" horiz-adv-x="1308" 
d="M475 0v600l-483 864h407l166 -352q21 -44 43 -97t34 -83l11 -31h4q41 111 88 211l164 352h408l-483 -864v-600h-359zM741 1579v287h258v-287h-258zM313 1579v287h258v-287h-258z" />
    <glyph glyph-name="Zacute" unicode="&#x179;" horiz-adv-x="1306" 
d="M78 0v225l565 801q28 40 56.5 73t42.5 47l14 13v4q-47 -6 -113 -6h-539v307h1106v-221l-567 -805q-28 -40 -56.5 -73.5t-42.5 -46.5l-14 -13v-4q47 6 113 6h578v-307h-1143zM526 1559l166 307h350l-241 -307h-275z" />
    <glyph glyph-name="zacute" unicode="&#x17a;" horiz-adv-x="1112" 
d="M70 0v176l387 486q24 29 47 53t34 33l11 10v4q-26 -4 -92 -4h-371v297h942v-178l-385 -486q-23 -28 -46.5 -52t-35.5 -34l-12 -10v-4q26 6 94 6h395v-297h-968zM397 1157l166 307h350l-241 -307h-275z" />
    <glyph glyph-name="Zdotaccent" unicode="&#x17b;" horiz-adv-x="1306" 
d="M78 0v225l565 801q28 40 56.5 73t42.5 47l14 13v4q-47 -6 -113 -6h-539v307h1106v-221l-567 -805q-28 -40 -56.5 -73.5t-42.5 -46.5l-14 -13v-4q47 6 113 6h578v-307h-1143zM528 1595v271h293v-271h-293z" />
    <glyph glyph-name="zdotaccent" unicode="&#x17c;" horiz-adv-x="1112" 
d="M70 0v176l387 486q24 29 47 53t34 33l11 10v4q-26 -4 -92 -4h-371v297h942v-178l-385 -486q-23 -28 -46.5 -52t-35.5 -34l-12 -10v-4q26 6 94 6h395v-297h-968zM399 1194v270h293v-270h-293z" />
    <glyph glyph-name="Zcaron" unicode="&#x17d;" horiz-adv-x="1306" 
d="M78 0v225l565 801q28 40 56.5 73t42.5 47l14 13v4q-47 -6 -113 -6h-539v307h1106v-221l-567 -805q-28 -40 -56.5 -73.5t-42.5 -46.5l-14 -13v-4q47 6 113 6h578v-307h-1143zM502 1559l-203 307h276l97 -168h4l96 168h277l-203 -307h-344z" />
    <glyph glyph-name="zcaron" unicode="&#x17e;" horiz-adv-x="1112" 
d="M70 0v176l387 486q24 29 47 53t34 33l11 10v4q-26 -4 -92 -4h-371v297h942v-178l-385 -486q-23 -28 -46.5 -52t-35.5 -34l-12 -10v-4q26 6 94 6h395v-297h-968zM373 1157l-203 307h276l97 -168h4l96 168h277l-203 -307h-344z" />
    <glyph glyph-name="longs" unicode="&#x17f;" horiz-adv-x="681" 
d="M197 0v760h-129v276h129v43q0 99 35 173.5t85.5 115t120 65.5t126 32.5t116.5 7.5q28 0 54.5 -1.5t39.5 -3.5l12 -2v-299q-24 4 -57 4q-30 0 -58 -4.5t-56.5 -15.5t-46 -33.5t-17.5 -54.5v-1063h-354z" />
    <glyph glyph-name="florin" unicode="&#x192;" horiz-adv-x="1214" 
d="M47 57q110 -14 143 -14q30 0 57.5 5t58 17.5t50 40.5t23.5 68l39 461h-127v276h151l19 185q7 72 30 130.5t55.5 98.5t76.5 70.5t87.5 48t94 28t90.5 14t82 3.5q28 0 73 -4t76 -8l31 -4v-299q-123 14 -156 14q-31 0 -58.5 -5t-58 -17.5t-50 -40.5t-23.5 -68l-14 -146h194
v-276h-219l-43 -500q-6 -72 -29.5 -130.5t-56 -98.5t-76.5 -70.5t-87.5 -48t-94 -28t-90 -14t-80.5 -3.5q-28 0 -70 4t-70 8l-28 4v299z" />
    <glyph glyph-name="Scommaaccent" unicode="&#x218;" horiz-adv-x="1187" 
d="M63 184l189 273q7 -6 19 -16.5t50.5 -36.5t78 -46t95 -36.5t107.5 -16.5q64 0 109 28t45 89q0 35 -36.5 65t-94.5 55.5t-128.5 53.5t-141 67t-128.5 87.5t-94.5 123t-36.5 166.5q0 199 148 324t370 125q88 0 169 -17t133.5 -41.5t92.5 -49t58 -41.5l18 -17l-151 -293
q-6 5 -17 14t-46 31t-71 39t-88.5 31t-101.5 14q-63 0 -109 -29t-46 -86q0 -37 36.5 -67t94.5 -54.5t128 -51t140.5 -64t128.5 -85t94.5 -123t36.5 -169.5q0 -92 -35 -174t-99 -145t-163 -99.5t-219 -36.5q-96 0 -186.5 21.5t-151 52.5t-107.5 61.5t-69 51.5zM436 -100h279
q14 -60 14 -119q0 -97 -57 -211h-252q41 118 41 190q0 66 -25 140z" />
    <glyph glyph-name="scommaaccent" unicode="&#x219;" horiz-adv-x="964" 
d="M49 131l152 238q5 -4 13.5 -11.5t37 -26t58 -32.5t73 -25.5t86.5 -11.5q44 0 74 12t30 37q0 16 -21 31.5t-56 28.5t-79 31t-90.5 37.5t-90.5 50t-79 66.5t-56 88t-21 114q0 146 123 233.5t311 87.5q69 0 132.5 -12.5t105 -30.5t73 -35.5t45.5 -30.5l15 -12l-121 -251
l-12 9t-33.5 21t-53 26t-69 20.5t-82.5 9.5q-44 0 -74 -13t-30 -39q0 -14 21 -27.5t56 -25.5t79 -29t90.5 -36t90.5 -49t79 -65t56 -87t21 -113q0 -141 -117.5 -237.5t-314.5 -96.5q-74 0 -144.5 16t-118.5 39t-85.5 46t-55.5 39zM326 -100h278q14 -60 14 -119
q0 -97 -57 -211h-252q41 118 41 190q0 69 -24 140z" />
    <glyph glyph-name="uni021A" unicode="&#x21a;" horiz-adv-x="1263" 
d="M453 0v1157h-445v307h1247v-307h-444v-1157h-358zM473 -100h279q14 -60 14 -119q0 -97 -57 -211h-252q41 118 41 190q0 66 -25 140z" />
    <glyph glyph-name="uni021B" unicode="&#x21b;" horiz-adv-x="849" 
d="M184 389v371h-135v276h146v303h344v-303h221v-276h-221v-324q0 -42 19 -71t50.5 -41.5t59.5 -17.5t59 -5l47 2v-307q-39 -6 -96 -6q-41 0 -80.5 3.5t-90.5 14t-94.5 28t-86.5 48t-73.5 71t-49.5 101t-19 133.5zM332 -100h278q15 -64 15 -119q0 -95 -58 -211h-252
q41 118 41 190q0 69 -24 140z" />
    <glyph glyph-name="circumflex" unicode="&#x2c6;" horiz-adv-x="995" 
d="M123 1559l203 307h344l202 -307h-276l-96 167h-4l-97 -167h-276z" />
    <glyph glyph-name="caron" unicode="&#x2c7;" horiz-adv-x="995" 
d="M326 1559l-203 307h276l97 -168h4l96 168h276l-202 -307h-344z" />
    <glyph glyph-name="breve" unicode="&#x2d8;" horiz-adv-x="991" 
d="M496 1548q-150 0 -253.5 80t-103.5 217v21h240v-23q0 -57 35.5 -88t81.5 -31t81 31t35 88v23h240v-21q0 -137 -103.5 -217t-252.5 -80z" />
    <glyph glyph-name="dotaccent" unicode="&#x2d9;" horiz-adv-x="993" 
d="M350 1595v271h293v-271h-293z" />
    <glyph glyph-name="ring" unicode="&#x2da;" horiz-adv-x="993" 
d="M496 1530q-91 0 -157.5 44.5t-66.5 129.5t67 130.5t157 45.5t157.5 -45.5t67.5 -130.5q0 -57 -34.5 -98t-83.5 -58.5t-107 -17.5zM496 1632q32 0 51.5 20t19.5 52q0 34 -19.5 54t-51.5 20q-31 0 -50.5 -20.5t-19.5 -53.5q0 -32 19 -52t51 -20z" />
    <glyph glyph-name="ogonek" unicode="&#x2db;" horiz-adv-x="995" 
d="M299 -227q0 46 22 92t53.5 79t62.5 59.5t53 40.5l22 13l184 -28q-13 -11 -32.5 -29.5t-51.5 -59.5t-32 -65q0 -20 19 -32.5t39 -15.5l19 -3l-86 -254q-6 1 -15.5 2t-38 7.5t-54 15t-57 25t-54 36.5t-38 50.5t-15.5 66.5z" />
    <glyph glyph-name="tilde" unicode="&#x2dc;" horiz-adv-x="993" 
d="M84 1559q0 313 262 313q38 0 71.5 -12.5t57 -31t44 -36.5t42.5 -30.5t43 -12.5q76 0 76 117h229q0 -314 -262 -314q-38 0 -71.5 12.5t-57 31t-44 36.5t-42.5 30.5t-43 12.5q-76 0 -76 -116h-229z" />
    <glyph glyph-name="hungarumlaut" unicode="&#x2dd;" horiz-adv-x="993" 
d="M461 1559l166 307h334l-242 -307h-258zM35 1559l155 307h285l-162 -307h-278z" />
    <glyph glyph-name="uni1E9E" unicode="&#x1e9e;" horiz-adv-x="1468" 
d="M154 0v983q0 217 135 349t358 132h668v-245l-189 -304q-8 -14 -18 -28.5t-16 -22.5l-7 -8v-4l19 -4q87 -20 150.5 -85.5t92.5 -148t29 -168.5q0 -124 -63.5 -227t-172 -161t-237.5 -58h-241v307h215q63 0 97 41t34 98q0 56 -33 96t-98 40h-164v245l108 199q24 44 47 77
t34 45l11 11v4q-18 -6 -92 -6h-172q-56 0 -92.5 -47.5t-36.5 -118.5v-991h-366z" />
    <glyph glyph-name="thinspace" unicode="&#x2009;" horiz-adv-x="40" 
 />
    <glyph glyph-name="endash" unicode="&#x2013;" horiz-adv-x="1495" 
d="M137 455v266h1221v-266h-1221z" />
    <glyph glyph-name="emdash" unicode="&#x2014;" horiz-adv-x="1904" 
d="M137 455v266h1630v-266h-1630z" />
    <glyph glyph-name="quoteleft" unicode="&#x2018;" horiz-adv-x="530" 
d="M61 973l183 522h239l-110 -522h-312z" />
    <glyph glyph-name="quoteright" unicode="&#x2019;" horiz-adv-x="516" 
d="M72 973l110 522h312l-183 -522h-239z" />
    <glyph glyph-name="quotesinglbase" unicode="&#x201a;" horiz-adv-x="544" 
d="M43 -182l111 522h301l-183 -522h-229z" />
    <glyph glyph-name="quotedblleft" unicode="&#x201c;" horiz-adv-x="937" 
d="M467 973l182 522h242l-111 -522h-313zM61 973l183 522h241l-110 -522h-314z" />
    <glyph glyph-name="quotedblright" unicode="&#x201d;" horiz-adv-x="923" 
d="M477 973l111 522h313l-182 -522h-242zM72 973l110 522h314l-183 -522h-241z" />
    <glyph glyph-name="quotedblbase" unicode="&#x201e;" horiz-adv-x="937" 
d="M436 -182l111 522h301l-182 -522h-230zM43 -182l111 522h301l-183 -522h-229z" />
    <glyph glyph-name="dagger" unicode="&#x2020;" horiz-adv-x="1003" 
d="M332 -102v890h-266v267h266v409h338v-409h268v-267h-268v-890h-338z" />
    <glyph glyph-name="daggerdbl" unicode="&#x2021;" horiz-adv-x="1069" 
d="M98 307v266h267v215h-267v267h267v409h337v-409h269v-267h-269v-215h269v-266h-269v-409h-337v409h-267z" />
    <glyph glyph-name="bullet" unicode="&#x2022;" horiz-adv-x="954" 
d="M477 215q-158 0 -269.5 111.5t-111.5 269.5t111.5 269.5t269.5 111.5t269.5 -111.5t111.5 -269.5t-111.5 -269.5t-269.5 -111.5z" />
    <glyph glyph-name="ellipsis" unicode="&#x2026;" horiz-adv-x="1888" 
d="M1446 0v336h323v-336h-323zM782 0v336h324v-336h-324zM119 0v336h323v-336h-323z" />
    <glyph glyph-name="perthousand" unicode="&#x2030;" horiz-adv-x="2566" 
d="M430 782q-155 0 -263 102.5t-108 250.5q0 146 108.5 250t262.5 104q153 0 262 -104.5t109 -249.5q0 -147 -108.5 -250t-262.5 -103zM141 0l1131 1464h311l-1130 -1464h-312zM430 1028q46 0 79.5 32t33.5 77q0 43 -33.5 74.5t-79.5 31.5t-79.5 -31.5t-33.5 -74.5
q0 -45 33.5 -77t79.5 -32zM1757 328q0 146 108.5 250t262.5 104q153 0 262 -104.5t109 -249.5q0 -147 -108.5 -250t-262.5 -103q-155 0 -263 102.5t-108 250.5zM934 328q0 146 108.5 250t262.5 104q153 0 261.5 -104.5t108.5 -249.5q0 -148 -108 -250.5t-262 -102.5
q-155 0 -263 102.5t-108 250.5zM2015 330q0 -45 33.5 -77t79.5 -32t79.5 32t33.5 77q0 43 -33.5 74.5t-79.5 31.5t-79.5 -31.5t-33.5 -74.5zM1192 330q0 -45 33.5 -77t79.5 -32t79 32t33 77q0 43 -33 74.5t-79 31.5t-79.5 -31.5t-33.5 -74.5z" />
    <glyph glyph-name="guilsinglleft" unicode="&#x2039;" horiz-adv-x="784" 
d="M393 158l-336 420l336 421h324l-336 -421l336 -420h-324z" />
    <glyph glyph-name="guilsinglright" unicode="&#x203a;" horiz-adv-x="784" 
d="M68 158l335 420l-335 421h323l336 -421l-336 -420h-323z" />
    <glyph glyph-name="fraction" unicode="&#x2044;" horiz-adv-x="399" 
d="M-23 0h-243l688 1464h244z" />
    <glyph glyph-name="zerosuperior" unicode="&#x2070;" 
d="M416 846q-96 0 -165.5 36.5t-108 103t-56.5 148.5t-18 185q0 471 348 471t348 -471q0 -103 -18 -185t-56.5 -148.5t-108 -103t-165.5 -36.5zM416 1081q88 0 88 238q0 233 -88 233t-88 -233q0 -238 88 -238z" />
    <glyph glyph-name="foursuperior" unicode="&#x2074;" 
d="M438 866v178h-403v173l350 552h307v-505h109v-220h-109v-178h-254zM279 1264h159v184q0 23 2 48.5t4 39.5l2 14h-4q-18 -55 -43 -94l-120 -188v-4z" />
    <glyph glyph-name="fivesuperior" unicode="&#x2075;" 
d="M406 846q-60 0 -116 13.5t-94 33t-67.5 39.5t-42.5 34l-14 13l129 190q3 -4 8 -9.5t23.5 -21t38.5 -27t51 -21t63 -9.5q45 0 81 26t36 69q0 44 -35.5 70t-89.5 26q-36 0 -69 -7t-48 -13l-16 -7l-133 49l41 475h544v-223h-336l-4 -47l-6 -33l4 -2q35 9 88 9
q143 0 231.5 -87t88.5 -212q0 -62 -23 -120t-66 -104.5t-112.5 -75t-154.5 -28.5z" />
    <glyph glyph-name="sixsuperior" unicode="&#x2076;" 
d="M446 846q-72 0 -137.5 26t-119 76.5t-85.5 135t-32 190.5q0 76 17.5 149.5t54 140t87.5 117t122.5 80t154.5 29.5q57 0 111.5 -12t80.5 -24l25 -13l-66 -221q-76 32 -135 32q-117 0 -155 -106h4q37 12 76 12q151 0 236 -85.5t85 -213.5q0 -126 -88 -219.5t-236 -93.5z
M446 1081q31 0 49.5 23.5t18.5 56.5q0 46 -28 82.5t-83 36.5q-30 0 -49.5 -10.5t-19.5 -28.5q0 -71 33.5 -115.5t78.5 -44.5z" />
    <glyph glyph-name="sevensuperior" unicode="&#x2077;" 
d="M82 866l360 631l33 49v4q-34 -4 -61 -4h-330v223h684v-174l-406 -729h-280z" />
    <glyph glyph-name="eightsuperior" unicode="&#x2078;" 
d="M57 1130q0 115 131 218q-88 74 -88 180q0 84 46.5 145t117 89t154.5 28q83 0 155.5 -29t121 -90.5t48.5 -144.5q0 -90 -100 -205q121 -77 121 -203q0 -86 -51.5 -149.5t-129 -93t-167.5 -29.5q-93 0 -172.5 30.5t-133 96.5t-53.5 157zM506 1133q0 42 -73 82
q-19 10 -83 40q-45 -56 -45 -108q0 -39 32.5 -61.5t76.5 -22.5q37 0 64.5 18.5t27.5 51.5zM346 1516q0 -36 31.5 -62t93.5 -53q35 56 35 108q0 29 -27 46.5t-61 17.5q-32 0 -52 -14t-20 -43z" />
    <glyph glyph-name="ninesuperior" unicode="&#x2079;" 
d="M61 1479q0 126 88 218.5t236 92.5q72 0 137.5 -26t119.5 -76.5t86 -135t32 -190.5q0 -76 -17.5 -149.5t-54 -140t-87.5 -117t-122.5 -80t-154.5 -29.5q-57 0 -111.5 12t-80.5 24l-26 13l66 221q76 -33 135 -33q118 0 156 107h-4q-37 -12 -76 -12q-151 0 -236.5 86.5
t-85.5 214.5zM317 1477q0 -46 28 -83.5t83 -37.5q30 0 50 10.5t20 28.5q0 71 -34 115t-79 44q-31 0 -49.5 -22.5t-18.5 -54.5z" />
    <glyph glyph-name="zeroinferior" unicode="&#x2080;" 
d="M416 -342q-96 0 -165.5 36.5t-108 103t-56.5 148.5t-18 185q0 471 348 471t348 -471q0 -103 -18 -185t-56.5 -148.5t-108 -103t-165.5 -36.5zM416 -106q88 0 88 237q0 234 -88 234t-88 -234q0 -237 88 -237z" />
    <glyph glyph-name="oneinferior" unicode="&#x2081;" 
d="M127 -322v222h182v293q0 17 1.5 33.5t3.5 23.5l1 8h-4q-10 -21 -22 -31l-49 -45l-148 162l254 238h221v-682h185v-222h-625z" />
    <glyph glyph-name="twoinferior" unicode="&#x2082;" 
d="M90 -322q-10 58 -10 101q0 75 22.5 137t58.5 103t79.5 74.5t86.5 58t79 46.5t58.5 47t22.5 52q0 33 -27 51.5t-65 18.5q-36 0 -72 -23.5t-55 -46.5l-18 -23l-170 146q4 7 12.5 19.5t38.5 44t65.5 55.5t94 43.5t123.5 19.5q61 0 118.5 -17.5t106.5 -51.5t79 -92t30 -132
q0 -58 -20 -107.5t-52 -83.5t-71 -62t-78.5 -49t-73.5 -38t-57 -34.5t-27 -34.5h391v-222h-670z" />
    <glyph glyph-name="threeinferior" unicode="&#x2083;" 
d="M391 -342q-62 0 -118.5 14.5t-93 35t-64 40.5t-39.5 34l-13 15l125 185q3 -4 8.5 -9.5t23.5 -21t38.5 -27t52 -21t64.5 -9.5q51 0 80.5 24t29.5 62q0 36 -36 54.5t-91 18.5h-75l-50 117l127 141q6 8 18.5 19.5t21.5 19.5l10 8v4q-43 -4 -70 -4h-225v224h602v-162
l-170 -187q100 -25 149 -93t49 -165q0 -128 -94.5 -222.5t-259.5 -94.5z" />
    <glyph glyph-name="fourinferior" unicode="&#x2084;" 
d="M434 -322v179h-403v172l350 553h307v-506h109v-219h-109v-179h-254zM274 76h160v184q0 23 2 48.5t4 39.5l2 14h-4q-18 -55 -43 -94l-121 -188v-4z" />
    <glyph glyph-name="fiveinferior" unicode="&#x2085;" 
d="M408 -342q-60 0 -116 13.5t-94 33t-67.5 39.5t-42.5 34l-14 13l129 191q3 -4 8 -9.5t23.5 -21t38.5 -27t51 -21t63 -9.5q45 0 81 25.5t36 68.5q0 44 -35.5 70t-89.5 26q-36 0 -69 -7t-48 -13l-16 -7l-133 49l41 476h544v-224h-336l-4 -47l-6 -32l4 -3q35 9 88 9
q143 0 231.5 -87t88.5 -212q0 -62 -23 -120t-66 -104.5t-112.5 -75t-154.5 -28.5z" />
    <glyph glyph-name="sixinferior" unicode="&#x2086;" 
d="M446 -342q-72 0 -137.5 26t-119 76.5t-85.5 135t-32 190.5q0 76 17.5 149.5t54 140t87.5 117t122.5 80t154.5 29.5q57 0 111.5 -12t80.5 -24l25 -13l-66 -221q-76 33 -135 33q-117 0 -155 -107h4q38 12 76 12q151 0 236 -85.5t85 -213.5q0 -126 -88 -219.5t-236 -93.5z
M446 -106q31 0 49.5 23.5t18.5 55.5q0 46 -28 82.5t-83 36.5q-30 0 -49.5 -10.5t-19.5 -28.5q0 -71 33.5 -115t78.5 -44z" />
    <glyph glyph-name="seveninferior" unicode="&#x2087;" 
d="M72 -322l360 631l33 49v4q-35 -4 -62 -4h-329v224h684v-174l-406 -730h-280z" />
    <glyph glyph-name="eightinferior" unicode="&#x2088;" 
d="M57 -57q0 114 131 217q-88 74 -88 180q0 84 46.5 145t117 89t154.5 28q83 0 155.5 -29t121 -90.5t48.5 -144.5q0 -90 -100 -205q121 -77 121 -203q0 -86 -51.5 -149.5t-129 -93t-167.5 -29.5q-92 0 -172 30.5t-133.5 97t-53.5 157.5zM506 -55q0 18 -10.5 34t-33.5 31
t-44 25.5t-57 27.5q-7 3 -11 5q-45 -56 -45 -109q0 -39 32.5 -61.5t76.5 -22.5q37 0 64.5 18.5t27.5 51.5zM346 328q0 -36 31.5 -62t93.5 -53q35 56 35 109q0 29 -27 46t-61 17q-32 0 -52 -14t-20 -43z" />
    <glyph glyph-name="nineinferior" unicode="&#x2089;" 
d="M59 291q0 126 88 218.5t236 92.5q72 0 137.5 -26t119.5 -76.5t86 -135t32 -190.5q0 -76 -17.5 -149.5t-54 -140t-87.5 -117t-122.5 -80t-154.5 -29.5q-57 0 -111.5 12t-80.5 24l-26 13l66 221q76 -32 135 -32q118 0 156 106h-4q-37 -12 -76 -12q-151 0 -236.5 86.5
t-85.5 214.5zM315 289q0 -46 28 -83.5t83 -37.5q30 0 50 10.5t20 28.5q0 71 -34 115.5t-79 44.5q-31 0 -49.5 -23t-18.5 -55z" />
    <glyph glyph-name="Euro" unicode="&#x20ac;" horiz-adv-x="1222" 
d="M55 485v197h115q-7 53 -2 98h-113v197h148q71 228 265 370t445 142q55 0 115 -7.5t92 -14.5l33 -7l-88 -323q-80 20 -162 20q-106 0 -187.5 -47t-127.5 -133h442l-41 -197h-448q-6 -46 4 -98h424l-41 -197h-318q49 -81 131.5 -126.5t178.5 -45.5q45 0 93.5 7.5t74.5 15.5
l26 8l62 -328q-113 -41 -263 -41q-259 0 -446.5 139t-259.5 371h-152z" />
    <glyph glyph-name="trademark" unicode="&#x2122;" horiz-adv-x="1980" 
d="M907 549l72 915h242l149 -358l27 -90h4q14 59 26 90l150 358h242l67 -915h-260l-20 356l2 66h-4l-105 -256h-201l-104 256h-4l2 -66l-25 -356h-260zM324 549v692h-291v223h835v-223h-286v-692h-258z" />
    <glyph glyph-name="minus" unicode="&#x2212;" horiz-adv-x="1290" 
d="M86 455v266h1118v-266h-1118z" />
    <glyph glyph-name="infinity" unicode="&#x221e;" horiz-adv-x="1087" 
d="M545 293q-173 0 -297.5 124.5t-124.5 297.5q0 174 124 297t298 123q175 0 297.5 -122.5t122.5 -297.5q0 -174 -123 -298t-297 -124z" />
    <glyph glyph-name="approxequal" unicode="&#x2248;" horiz-adv-x="1290" 
d="M236 659l-130 203q166 166 338 166q65 0 124.5 -22.5t97 -49t87 -49t97.5 -22.5q56 0 112 31.5t97 78.5l129 -202q-166 -166 -338 -166q-65 0 -124.5 22.5t-97 49t-87 49t-97.5 22.5q-105 0 -208 -111zM236 190l-130 203q166 166 338 166q65 0 124.5 -22.5t97 -49t87 -49
t97.5 -22.5q56 0 112 31.5t97 78.5l129 -202q-166 -166 -338 -166q-65 0 -124.5 22.5t-97 49t-87 49t-97.5 22.5q-105 0 -208 -111z" />
    <glyph glyph-name="notequal" unicode="&#x2260;" horiz-adv-x="1290" 
d="M229 96l78 123h-180v266h350l131 205h-481v266h653l142 222l155 -101l-78 -121h164v-266h-334l-131 -205h465v-266h-635l-139 -219z" />
    <glyph glyph-name="lessequal" unicode="&#x2264;" horiz-adv-x="1290" 
d="M121 479v219l1032 457v-297l-676 -268v-4l676 -267v-296zM127 -143h1026v-267h-1026v267z" />
    <glyph glyph-name="greaterequal" unicode="&#x2265;" horiz-adv-x="1290" 
d="M137 23v296l676 267v4l-676 268v297l1032 -457v-219zM139 -143h1026v-267h-1026v267z" />
    <glyph glyph-name="commaaccent" horiz-adv-x="686" 
d="M215 -100h279q14 -60 14 -119q0 -97 -57 -211h-252q41 118 41 190q0 66 -25 140z" />
    <glyph glyph-name="apple" horiz-adv-x="2314" 
d="M344 -10v311l-258 148v569l258 145v310l543 290l274 -145l271 145l542 -290v-310l254 -145v-569l-254 -148v-311l-542 -289l-271 145l-274 -145zM426 61l487 -258l248 136l242 -136l487 258v285l234 131v510l-234 135v279l-487 258l-242 -131l-248 131l-487 -258v-279
l-233 -135v-510l233 -131v-285zM496 131v248l-203 123v461l203 118v252l440 234l225 -121l219 121l439 -234v-252l204 -118v-461l-204 -123v-248l-439 -233l-219 118l-225 -118zM872 186h265v351h360v221h-360v262h174q21 0 26.5 -9t5.5 -34v-43h236v209q0 53 -20.5 75.5
t-75.5 22.5h-709v-221h98v-834z" />
    <glyph glyph-name="zero.tnum" horiz-adv-x="1228" 
d="M616 -25q-122 0 -217 39t-157 107t-102 165.5t-57 207.5t-17 241t17 240.5t57 206t102 163.5t157 105.5t217 38.5t217 -38.5t157 -105.5t102.5 -163.5t57.5 -206t17 -240.5t-17 -241t-57.5 -207.5t-102.5 -165.5t-157 -107t-217 -39zM616 303q183 0 183 432
q0 426 -183 426q-182 0 -182 -426q0 -432 182 -432z" />
    <glyph glyph-name="one.tnum" horiz-adv-x="1228" 
d="M160 0v307h311v611l2 112h-4q-18 -41 -57 -78l-88 -80l-207 222l395 370h309v-1157h314v-307h-975z" />
    <glyph glyph-name="two.tnum" horiz-adv-x="1228" 
d="M123 0q-17 97 -17 158q0 110 35 205.5t90.5 163t123 125.5t135.5 103t123.5 84.5t90.5 82t35 84.5q0 71 -46.5 108t-110.5 37q-39 0 -75.5 -16t-61 -39t-43.5 -46t-28 -39l-9 -16l-267 179q3 7 8.5 18t27 44t47.5 62.5t70 66t94 62.5t120.5 44t148.5 18q93 0 180 -27
t159.5 -80t116.5 -141.5t44 -200.5q0 -93 -32.5 -174t-85 -139t-115.5 -108t-127 -89.5t-117 -74.5t-87 -72.5t-36 -75.5h623v-307h-1014z" />
    <glyph glyph-name="three.tnum" horiz-adv-x="1228" 
d="M86 168l172 276q5 -5 15 -14t42 -31.5t65 -40t82 -31.5t97 -14q97 0 153 42t56 104q0 83 -73.5 122.5t-198.5 39.5h-103l-76 174l193 231q31 37 63 71.5t48 50.5l16 15v4q-47 -10 -139 -10h-351v307h924v-223l-297 -342q161 -35 257.5 -152t96.5 -272q0 -76 -20.5 -148
t-65 -136t-107 -112t-152.5 -76t-197 -28q-92 0 -177 20t-141.5 48.5t-99.5 56.5t-62 48z" />
    <glyph glyph-name="four.tnum" horiz-adv-x="1228" 
d="M27 354v217l565 893h438v-813h174v-297h-174v-354h-354v354h-649zM391 651h285v328q0 36 3 77t6 64l3 23h-4q-31 -91 -72 -152l-221 -336v-4z" />
    <glyph glyph-name="five.tnum" horiz-adv-x="1228" 
d="M82 168l172 276q5 -5 15 -14t42 -31.5t65 -40t81 -31.5t94 -14q80 0 142.5 48t62.5 133q0 84 -66 133t-168 49q-50 0 -99 -12t-73 -24l-24 -13l-191 71l60 766h819v-307h-508l-8 -135q0 -13 -2 -27t-4 -22l-3 -8h5q51 14 106 14q127 0 228 -38t165 -104t97.5 -152.5
t33.5 -186.5q0 -228 -152 -375.5t-390 -147.5q-91 0 -175.5 20t-141 48.5t-100 56.5t-63.5 48z" />
    <glyph glyph-name="six.tnum" horiz-adv-x="1228" 
d="M666 -25q-114 0 -218 43.5t-189 127t-136 221t-51 309.5q0 120 28.5 237t87 221t140 183t196 125.5t246.5 46.5q91 0 172 -16t116 -32l36 -16l-97 -307q-96 43 -200 43q-122 0 -201 -66t-115 -175h4q27 19 88.5 35t112.5 16q111 0 203 -43t151.5 -114t92 -160.5
t32.5 -184.5q0 -94 -34 -182t-96 -158t-158 -112t-211 -42zM666 303q65 0 106 48.5t41 115.5q0 88 -55.5 151.5t-165.5 63.5q-152 0 -152 -88q0 -124 72 -207.5t154 -83.5z" />
    <glyph glyph-name="seven.tnum" horiz-adv-x="1228" 
d="M168 0l514 1026q23 44 46.5 77.5t35.5 44.5l12 11v4q-20 -6 -94 -6h-578v307h1051v-250l-614 -1214h-373z" />
    <glyph glyph-name="eight.tnum" horiz-adv-x="1228" 
d="M66 430q0 53 17.5 106t40.5 90.5t54.5 73.5t51 53.5t38.5 32.5q-133 116 -133 281q0 82 29.5 156t87.5 134.5t154.5 96t220.5 35.5q138 0 249 -48.5t178.5 -146t67.5 -229.5q0 -150 -143 -334q172 -119 172 -309q0 -68 -21.5 -132t-66 -121.5t-107.5 -100.5t-153 -68
t-195 -25q-129 0 -234 38t-171 102t-101.5 145t-35.5 170zM784 440q0 14 -4 26.5t-14.5 25t-20.5 22.5t-29 22t-32.5 20t-39.5 21t-41.5 20t-46 21t-46.5 21q-78 -82 -78 -178q0 -71 51.5 -120.5t124.5 -49.5q83 0 129.5 39t46.5 110zM485 1059q0 -28 13 -53t32 -43
t53.5 -38.5t62.5 -33.5t75 -33q51 98 51 180q0 62 -41.5 99t-112.5 37q-66 0 -99.5 -32.5t-33.5 -82.5z" />
    <glyph glyph-name="nine.tnum" horiz-adv-x="1228" 
d="M461 -25q-91 0 -172 16t-117 32l-35 16l96 307q97 -43 201 -43q122 0 201 66.5t115 175.5h-5q-25 -20 -86 -35.5t-114 -15.5q-111 0 -203 42.5t-151.5 113.5t-92 160.5t-32.5 184.5q0 94 34 182t96 158t158 112t211 42q114 0 218 -43.5t189 -127t136 -221t51 -309.5
q0 -120 -28.5 -237t-87 -221t-140 -183t-196 -125.5t-246.5 -46.5zM639 782q152 0 152 88q0 124 -72 207.5t-154 83.5q-65 0 -106 -48.5t-41 -115.5q0 -88 55.5 -151.5t165.5 -63.5z" />
    <glyph glyph-name="hyphen.case" horiz-adv-x="991" 
d="M174 557v307h643v-307h-643z" />
    <glyph glyph-name="parenleft.case" horiz-adv-x="765" 
d="M702 -133h-290q-254 402 -254 905q0 433 254 825h290q-231 -386 -231 -825q0 -466 231 -905z" />
    <glyph glyph-name="parenright.case" horiz-adv-x="765" 
d="M354 -133h-291q232 441 232 905q0 437 -232 825h291q254 -392 254 -825q0 -503 -254 -905z" />
    <glyph glyph-name="bracketleft.case" horiz-adv-x="835" 
d="M211 -133v1730h504v-245h-209v-1239h209v-246h-504z" />
    <glyph glyph-name="bracketright.case" horiz-adv-x="835" 
d="M625 1597v-1730h-504v246h209v1239h-209v245h504z" />
    <glyph glyph-name="braceleft.case" horiz-adv-x="913" 
d="M295 188v201q0 55 -18 95.5t-43.5 59t-51 29.5t-43.5 12l-18 1v307q7 0 19 1t42 12t52.5 30.5t41.5 61t19 98.5v180q0 84 29.5 147t72 97t101.5 55t106 27t98 6l89 -4v-254q-23 4 -52 4q-26 0 -49 -4.5t-47 -15.5t-38.5 -34.5t-14.5 -56.5v-239q0 -59 -17.5 -107
t-43 -75.5t-51 -46.5t-42.5 -25l-18 -7v-4q7 -2 18.5 -6t41 -23t52.5 -45t41.5 -75t18.5 -109v-260q0 -33 14.5 -56.5t38.5 -34t47 -15t49 -4.5l52 4v-254q-38 -4 -89 -4t-98 6t-106 26.5t-101.5 55t-72 97t-29.5 146.5z" />
    <glyph glyph-name="braceright.case" horiz-adv-x="913" 
d="M123 115q22 -4 51 -4q26 0 49 4.5t47.5 15t39 34t14.5 56.5v260q0 60 17.5 109t43 75.5t51 44.5t42.5 24l18 5v4q-7 2 -18.5 7t-41 25t-52.5 46.5t-41.5 75t-18.5 107.5v239q0 33 -14.5 56.5t-39 34.5t-47.5 15.5t-49 4.5l-51 -4v254q37 4 88 4t98 -6t106 -27t101.5 -55
t72 -97t29.5 -147v-180q0 -57 18 -98.5t44 -61t51.5 -30.5t43.5 -12l18 -1v-307q-7 0 -19 -1t-42 -12t-53 -29.5t-42 -59t-19 -95.5v-201q0 -84 -29.5 -146.5t-72 -97t-101.5 -55t-106 -26.5t-98 -6l-88 4v254z" />
    <glyph glyph-name="at.case" horiz-adv-x="1798" 
d="M121 727q0 160 61.5 302.5t167.5 245t256 162.5t320 60q132 0 237 -26t174 -70t114.5 -107.5t65 -134t19.5 -153.5v-406h152v-244h-580q-111 0 -201.5 32t-147 85t-86.5 119t-30 137q0 69 29.5 132.5t85 115t146.5 82.5t204 31h100q0 61 -85 96t-191 35
q-97 0 -184.5 -42.5t-148.5 -111.5t-96.5 -158.5t-35.5 -181.5q0 -99 34 -186.5t97.5 -155.5t163 -107.5t221.5 -39.5v-267q-197 0 -360.5 59t-272.5 161t-169 240t-60 296zM993 737q0 -60 35 -98.5t100 -38.5h80v274h-75q-67 0 -103.5 -39t-36.5 -98z" />
    <glyph glyph-name="guillemotleft.case" horiz-adv-x="1398" 
d="M631 700l336 422h323l-336 -422l336 -419h-323zM434 281l-336 419l336 422h324l-336 -422l336 -419h-324z" />
    <glyph glyph-name="guillemotright.case" horiz-adv-x="1398" 
d="M641 281l336 419l-336 422h324l335 -422l-335 -419h-324zM109 281l335 419l-335 422h323l336 -422l-336 -419h-323z" />
    <glyph glyph-name="guilsinglleft.case" horiz-adv-x="866" 
d="M434 281l-336 419l336 422h324l-336 -422l336 -419h-324z" />
    <glyph glyph-name="guilsinglright.case" horiz-adv-x="866" 
d="M109 281l335 419l-335 422h323l336 -422l-336 -419h-323z" />
    <glyph glyph-name="endash.case" horiz-adv-x="1568" 
d="M174 578v266h1221v-266h-1221z" />
    <glyph glyph-name="emdash.case" horiz-adv-x="1978" 
d="M174 578v266h1630v-266h-1630z" />
    <glyph glyph-name="periodcentered.case" horiz-adv-x="671" 
d="M174 539v335h324v-335h-324z" />
    <glyph glyph-name="questiondown.case" horiz-adv-x="1114" 
d="M475 1157v307h324v-307h-324zM117 377q0 68 19.5 127t50 101t68 78.5t75 67t68 59.5t50 63t19.5 71v68h340v-97q0 -56 -18 -105t-46 -84.5t-62.5 -67.5t-69 -59.5t-62.5 -54.5t-46 -59t-18 -67q0 -52 43 -86.5t103 -34.5q44 0 92.5 22t74.5 44l27 22l197 -240
q-6 -7 -18 -18.5t-53.5 -40.5t-87.5 -51.5t-119 -41t-150 -18.5q-88 0 -171.5 26.5t-152.5 75t-111 127t-42 173.5z" />
    <glyph glyph-name="exclamdown.case" horiz-adv-x="790" 
d="M233 1157v307h324v-307h-324zM211 0l33 1012h303l33 -1012h-369z" />
    <glyph glyph-name="bullet.case" horiz-adv-x="1036" 
d="M518 348q-158 0 -269.5 111.5t-111.5 269.5t111.5 269.5t269.5 111.5t269.5 -111.5t111.5 -269.5t-111.5 -269.5t-269.5 -111.5z" />
    <glyph glyph-name="zero.p_osf" horiz-adv-x="1210" 
d="M82 569q0 115 30 217.5t90.5 188t164.5 136t239 50.5q109 0 198 -33.5t148 -90.5t99.5 -134t58.5 -161.5t18 -176.5q0 -93 -18 -177t-58 -160.5t-99.5 -132t-148.5 -88t-198 -32.5t-198 33.5t-148.5 90t-100.5 133.5t-59 161t-18 176zM606 270q48 0 82 24.5t52 68.5
t26 93.5t8 108.5q0 60 -8 111t-26.5 95t-52.5 69.5t-81 25.5q-48 0 -82 -25t-52 -69t-26 -93.5t-8 -109.5q0 -61 8 -111t26 -94t52 -69t82 -25z" />
    <glyph glyph-name="one.p_osf" horiz-adv-x="1079" 
d="M119 0v297h293v332l2 151h-4q-31 -36 -78 -65l-113 -64l-162 242l396 244h301v-840h274v-297h-909z" />
    <glyph glyph-name="two.p_osf" horiz-adv-x="1144" 
d="M100 0v236q551 329 551 505q0 59 -41 88t-94 29q-39 0 -82 -14.5t-76 -36t-60 -42.5t-42 -35l-14 -15l-181 227q7 9 21 23.5t63 52.5t103 67t140 52.5t177 23.5q64 0 125.5 -13t119.5 -41.5t102.5 -70.5t71 -105.5t26.5 -139.5q0 -72 -25.5 -139t-63.5 -117.5
t-94.5 -98.5t-107.5 -80t-113 -65v-4q47 10 139 10h318v-297h-963z" />
    <glyph glyph-name="three.p_osf" horiz-adv-x="1116" 
d="M16 -84l154 248q6 -5 16 -14t43 -31.5t66.5 -40t82 -31.5t93.5 -14q99 0 155 40.5t56 106.5q0 46 -25 81t-65 54.5t-83.5 29t-88.5 9.5h-121l-76 162l162 199q30 36 62 68t49 47l16 14v2q-47 -8 -139 -8h-283v299h883v-201l-305 -340q161 -28 265.5 -135.5t104.5 -253.5
q0 -93 -35 -176.5t-102 -149.5t-174 -104.5t-240 -38.5q-87 0 -167 18.5t-133 44.5t-93.5 52t-59.5 45z" />
    <glyph glyph-name="four.p_osf" horiz-adv-x="1269" 
d="M45 47v217l526 873h457v-793h174v-297h-174v-285h-354v285h-629zM410 344h264v320q0 36 3 76.5t6 63.5l3 23h-4q-33 -88 -72 -151z" />
    <glyph glyph-name="five.p_osf" horiz-adv-x="1130" 
d="M43 -86l150 250q5 -5 15 -14t42 -31.5t65 -40t82 -31.5t95 -14q53 0 101.5 17.5t83 58t34.5 96.5q0 88 -65.5 139t-164.5 51q-53 0 -104.5 -11.5t-76.5 -22.5l-26 -11l-180 68l60 719h788v-299h-487l-9 -131l-8 -56h4q52 15 107 15q124 0 224.5 -36t163.5 -97.5
t96.5 -140.5t33.5 -169q0 -219 -152.5 -352t-394.5 -133q-85 0 -165.5 18t-134.5 44t-96 52t-62 44z" />
    <glyph glyph-name="six.p_osf" horiz-adv-x="1222" 
d="M92 625q0 115 26.5 225.5t82.5 210t134.5 174.5t190.5 119.5t242 44.5q91 0 172 -15t116 -30l36 -15l-97 -276q-96 41 -200 41q-113 0 -192.5 -69.5t-115.5 -170.5h5q27 18 89 32.5t113 14.5q108 0 198.5 -39.5t148.5 -105t90 -149t32 -173.5q0 -88 -33.5 -171t-94 -150
t-154.5 -107.5t-207 -40.5q-91 0 -174 23.5t-158 75t-130 126t-87.5 184t-32.5 241.5zM453 557q0 -119 64.5 -203t156.5 -84q62 0 99.5 47t37.5 121q0 82 -53 141.5t-158 59.5q-147 0 -147 -82z" />
    <glyph glyph-name="seven.p_osf" horiz-adv-x="1124" 
d="M123 -238l487 955q22 43 41.5 74t28.5 41l8 10v4q-10 -6 -84 -6h-551v297h1028v-236l-587 -1139h-371z" />
    <glyph glyph-name="eight.p_osf" horiz-adv-x="1226" 
d="M80 403q0 56 20.5 111.5t54.5 99.5t62 73t57 52q-129 107 -129 260q0 77 29 147t85.5 127t149.5 90.5t212 33.5q99 0 186 -27t153.5 -76.5t105 -126.5t38.5 -170q0 -52 -16.5 -108.5t-42.5 -103.5t-40 -69.5t-26 -37.5q162 -109 162 -283q0 -80 -34.5 -154t-98.5 -134
t-168 -96t-232 -36q-125 0 -227 36t-166.5 96t-99.5 136.5t-35 159.5zM784 412q0 13 -4 25t-14 24t-20 21.5t-28 20.5t-31.5 19t-38.5 19.5t-41 18.5t-45.5 20t-45.5 20q-86 -81 -86 -168q0 -67 52 -115.5t126 -48.5q82 0 129 38.5t47 105.5zM483 993q0 -26 13 -49.5t32 -41
t52.5 -36.5t62.5 -32t74 -31q49 87 49 170q0 59 -40.5 95t-109.5 36q-65 0 -99 -31.5t-34 -79.5z" />
    <glyph glyph-name="nine.p_osf" horiz-adv-x="1224" 
d="M227 74q97 -41 201 -41q113 0 192 69t115 170h-4q-27 -18 -89 -32.5t-114 -14.5q-108 0 -198.5 39.5t-148.5 105t-90 149t-32 173.5q0 88 33.5 171t94 150t155 107.5t207.5 40.5q91 0 174 -23.5t158 -74.5t130 -125.5t87 -184t32 -241.5q0 -115 -26.5 -225.5t-82 -210
t-134 -174.5t-190.5 -119.5t-242 -44.5q-91 0 -172 15t-117 29l-35 15zM623 498q147 0 147 82q0 119 -64.5 202.5t-156.5 83.5q-62 0 -99.5 -47t-37.5 -121q0 -82 53 -141t158 -59z" />
    <glyph glyph-name="zero.t_osf" horiz-adv-x="1228" 
d="M92 569q0 115 30 217.5t90.5 188t164.5 136t239 50.5q109 0 198 -33.5t148.5 -90.5t100 -134t58.5 -161.5t18 -176.5q0 -93 -18 -177t-58.5 -160.5t-100 -132t-148.5 -88t-198 -32.5t-198 33.5t-148.5 90t-100.5 133.5t-59 161t-18 176zM616 270q48 0 82 24.5t52 68.5
t26 93.5t8 108.5q0 60 -8 111t-26.5 95t-52.5 69.5t-81 25.5q-48 0 -82 -25t-52 -69t-25.5 -93.5t-7.5 -109.5q0 -299 167 -299z" />
    <glyph glyph-name="one.t_osf" horiz-adv-x="1228" 
d="M203 0v297h293v332l2 151h-4q-31 -36 -78 -65l-113 -64l-162 242l396 244h301v-840h274v-297h-909z" />
    <glyph glyph-name="two.t_osf" horiz-adv-x="1228" 
d="M147 0v236q551 329 551 505q0 59 -41 88t-94 29q-39 0 -82 -14.5t-76 -36t-60 -42.5t-41 -35l-15 -15l-180 227q7 9 21 23.5t62.5 52.5t102.5 67t140 52.5t177 23.5q64 0 125.5 -13t119.5 -41.5t102.5 -70.5t71 -105.5t26.5 -139.5q0 -72 -25.5 -139t-63.5 -117.5
t-94.5 -98.5t-107.5 -80t-113 -65v-4q48 10 140 10h317v-297h-963z" />
    <glyph glyph-name="three.t_osf" horiz-adv-x="1228" 
d="M94 -80l154 248q6 -5 16 -14t42.5 -31.5t65.5 -40t81.5 -31.5t93.5 -14q99 0 155 40.5t56 106.5q0 45 -25 80t-65 54t-83.5 28.5t-88.5 9.5h-121l-74 162l160 199q30 35 62 66.5t49 46.5l16 14v2q-47 -8 -139 -8h-281v299h879v-201l-304 -338q159 -28 264 -135.5
t105 -251.5q0 -93 -35 -176t-101.5 -148.5t-173 -104t-239.5 -38.5q-86 0 -166 18t-132.5 44t-93 52t-59.5 44z" />
    <glyph glyph-name="four.t_osf" horiz-adv-x="1228" 
d="M39 47v217l526 873h457v-793h174v-297h-174v-285h-354v285h-629zM403 344h265v320q0 36 3 76.5t6 63.5l3 23h-4q-33 -88 -72 -151z" />
    <glyph glyph-name="five.t_osf" horiz-adv-x="1228" 
d="M100 -86l150 250q5 -5 15 -14t42 -31.5t65 -40t82 -31.5t95 -14q53 0 101.5 17.5t83 58t34.5 96.5q0 88 -65 139t-164 51q-53 0 -104.5 -11.5t-76.5 -22.5l-26 -11l-180 68l59 719h788v-299h-487l-8 -131l-8 -56h4q51 15 106 15q124 0 224.5 -36t163.5 -97.5t96.5 -140.5
t33.5 -169q0 -219 -152 -352t-394 -133q-85 0 -166 18t-135 44t-96 52t-61 44z" />
    <glyph glyph-name="six.t_osf" horiz-adv-x="1228" 
d="M80 625q0 115 26.5 225.5t82.5 210t134.5 174.5t190.5 119.5t242 44.5q91 0 172 -15t116 -30l35 -15l-96 -276q-97 41 -201 41q-113 0 -192 -69.5t-115 -170.5h4q27 18 89 32.5t114 14.5q108 0 198.5 -39.5t148.5 -105t90 -149t32 -173.5q0 -88 -33.5 -171t-94 -150
t-154.5 -107.5t-207 -40.5q-91 0 -174 23.5t-158 75t-130 126t-87.5 184t-32.5 241.5zM440 557q0 -119 65 -203t157 -84q62 0 99.5 47t37.5 121q0 82 -53 141.5t-158 59.5q-148 0 -148 -82z" />
    <glyph glyph-name="seven.t_osf" horiz-adv-x="1228" 
d="M170 -238l487 955q22 43 41.5 74t27.5 41l9 10v4q-10 -6 -84 -6h-551v297h1028v-236l-587 -1139h-371z" />
    <glyph glyph-name="eight.t_osf" horiz-adv-x="1228" 
d="M80 403q0 56 20.5 111.5t54.5 99.5t62 73t57 52q-129 107 -129 260q0 77 29 147t85.5 127t149.5 90.5t212 33.5q99 0 186 -27t153.5 -76.5t105 -126.5t38.5 -170q0 -52 -16.5 -108.5t-42.5 -103.5t-40 -69.5t-26 -37.5q162 -109 162 -283q0 -80 -34.5 -154t-98.5 -134
t-168 -96t-232 -36q-125 0 -227 36t-166.5 96t-99.5 136.5t-35 159.5zM784 412q0 13 -4 25t-14 24t-20 21.5t-28 20.5t-31.5 19t-38.5 19.5t-41 18.5t-45.5 20t-45.5 20q-86 -81 -86 -168q0 -67 52 -115.5t126 -48.5q82 0 129 38.5t47 105.5zM483 993q0 -26 13 -49.5t32 -41
t52.5 -36.5t62.5 -32t74 -31q49 87 49 170q0 59 -40.5 95t-109.5 36q-65 0 -99 -31.5t-34 -79.5z" />
    <glyph glyph-name="nine.t_osf" horiz-adv-x="1228" 
d="M246 74q96 -41 200 -41q113 0 192.5 69t115.5 170h-4q-27 -18 -89 -32.5t-114 -14.5q-108 0 -198.5 39.5t-148.5 105t-90 149t-32 173.5q0 88 33.5 171t94 150t154.5 107.5t207 40.5q114 0 216 -38.5t185 -114.5t132 -204t49 -292q0 -115 -26.5 -225.5t-82.5 -210
t-134.5 -174.5t-190.5 -119.5t-242 -44.5q-91 0 -172 15t-116 29l-35 15zM641 498q147 0 147 82q0 119 -64.5 202.5t-156.5 83.5q-62 0 -99.5 -47t-37.5 -121q0 -82 53 -141t158 -59z" />
    <glyph glyph-name="dollar.osf" horiz-adv-x="1124" 
d="M78 170l160 264q6 -6 16.5 -16t44 -35t67 -44.5t81 -35.5t90.5 -16q137 0 137 69q0 22 -31 43t-81 41t-110 43.5t-120.5 57t-110.5 75.5t-81 105t-31 139q0 135 97.5 227.5t256.5 122.5v191h223v-184q61 -7 117 -23t93 -34t65.5 -35.5t41.5 -28.5l13 -11l-125 -282
q-5 4 -14.5 11.5t-39 26t-60 33t-74.5 26t-85 11.5q-69 0 -105 -16t-36 -57q0 -20 31 -38t81 -36t110.5 -39.5t120.5 -54t110 -73.5t81 -104.5t31 -140.5q0 -132 -95.5 -233t-260.5 -131v-193h-223v187q-68 9 -133 32t-108.5 49t-77.5 50.5t-50 40.5z" />
    <glyph glyph-name="cent.osf" horiz-adv-x="1136" 
d="M78 614q0 177 106.5 317.5t296.5 186.5v170h234v-155q61 -8 118.5 -27t96 -41t69 -43t44.5 -35l14 -14l-160 -254l-11.5 11.5t-31 25.5t-48 32t-60.5 25.5t-70 11.5q-120 0 -183 -63t-63 -144q0 -87 63 -151t183 -64q34 0 69.5 11t61.5 26.5t47 31.5t32 27l11 11
l160 -254q-5 -5 -15 -14.5t-43.5 -34t-70.5 -45t-95 -40t-118 -26.5v-157h-234v172q-190 44 -296.5 184t-106.5 319z" />
    <glyph glyph-name="sterling.osf" horiz-adv-x="1284" 
d="M100 0v297h113v176h-88v221h88v86q0 128 69.5 230t188 157.5t262.5 55.5q68 0 134 -12.5t112.5 -30.5t83 -36.5t54.5 -31.5l18 -12l-150 -258q-14 8 -37.5 19.5t-87.5 30.5t-117 19q-68 0 -120 -36.5t-52 -94.5v-86h369v-221h-369v-176h592v-297h-1063z" />
    <glyph glyph-name="yen.osf" horiz-adv-x="1380" 
d="M174 598v197h133l-229 403h407l109 -242q20 -44 42 -100.5t34 -90.5l12 -34h4q43 125 88 225l109 242h407l-231 -403h151v-197h-264l-69 -121h333v-196h-348v-281h-358v281h-330v196h315l-69 121h-246z" />
    <glyph glyph-name="florin.osf" horiz-adv-x="1206" 
d="M47 55q110 -14 143 -14q30 0 58 5t58.5 17.5t50.5 40.5t24 68l33 373h-131v276h153l19 185q7 72 30 130.5t55.5 98.5t76 70.5t87 48t93.5 28t90 14t82 3.5q28 0 73 -4.5t76 -8.5l31 -4v-299q-123 15 -156 15q-31 0 -59 -5t-58.5 -17.5t-50.5 -40.5t-24 -68l-15 -146h197
v-276h-221l-35 -412q-6 -72 -29.5 -130.5t-55.5 -98.5t-76 -70.5t-87.5 -48t-93.5 -28t-89.5 -14t-80.5 -3.5q-28 0 -70 4t-70 8l-28 4v299z" />
    <glyph glyph-name="Euro.osf" horiz-adv-x="1200" 
d="M90 377v176h131q-2 16 -2 92h-129v176h162q42 115 123 203t213.5 143.5t298.5 55.5q54 0 106.5 -6.5t78.5 -12.5l26 -6l-76 -276q-65 18 -143 18q-165 0 -252 -119h377l-39 -176h-390q-6 -38 5 -92h372l-32 -176h-271q88 -113 244 -113q43 0 87.5 7t67.5 15l23 7l51 -281
q-100 -37 -235 -37q-122 0 -227.5 31t-183 86.5t-133 127t-87.5 157.5h-166z" />
    <glyph glyph-name="zero.numerator" 
d="M416 541q-96 0 -165.5 36.5t-108 103t-56.5 148.5t-18 185q0 471 348 471t348 -471q0 -103 -18 -185t-56.5 -148.5t-108 -103t-165.5 -36.5zM416 776q88 0 88 238q0 233 -88 233t-88 -233q0 -238 88 -238z" />
    <glyph glyph-name="one.numerator" 
d="M115 561v221h182v293q0 17 1.5 33.5t3.5 24.5l1 8h-4q-11 -21 -23 -31l-49 -45l-147 162l254 237h221v-682h184v-221h-624z" />
    <glyph glyph-name="two.numerator" 
d="M90 561q-10 58 -10 101q0 75 22.5 137t58.5 103t79.5 74.5t86.5 58t79 46.5t58.5 47t22.5 52q0 33 -27 51t-65 18q-36 0 -72 -23t-55 -46l-18 -23l-170 146q4 7 12.5 19.5t38.5 44t65.5 55.5t94 43.5t123.5 19.5q61 0 118.5 -17.5t106.5 -51.5t79 -92t30 -132
q0 -67 -26.5 -123t-67 -91t-88.5 -65.5t-90 -49.5t-72 -40.5t-35 -40.5h391v-221h-670z" />
    <glyph glyph-name="three.numerator" 
d="M391 541q-62 0 -118.5 14.5t-93 34.5t-64 40.5t-39.5 35.5l-13 14l125 184q3 -4 8.5 -9.5t23.5 -21t38.5 -27t52 -21t64.5 -9.5q51 0 80.5 24t29.5 62q0 36 -36 55t-91 19h-75l-50 117l127 141q6 8 18.5 19.5t21.5 19.5l10 8v4q-43 -4 -70 -4h-225v223h602v-161
l-170 -187q100 -25 149 -93t49 -165q0 -128 -94.5 -222.5t-259.5 -94.5z" />
    <glyph glyph-name="four.numerator" 
d="M440 561v178h-403v172l350 553h307v-506h109v-219h-109v-178h-254zM281 958h159v185q0 23 2 48.5t4 39.5l3 14h-5q-18 -55 -43 -94l-120 -188v-5z" />
    <glyph glyph-name="five.numerator" 
d="M395 541q-60 0 -116 13.5t-94 33.5t-67.5 39.5t-43.5 32.5l-13 14l129 190q3 -4 8.5 -9.5t23.5 -21t38 -27t51.5 -21t63.5 -9.5q45 0 81 25.5t36 68.5q0 45 -35.5 71t-89.5 26q-36 0 -69.5 -6.5t-49.5 -13.5l-15 -7l-133 49l41 475h545v-223h-336l-4 -47l-6 -33l4 -2
q35 8 88 8q143 0 231.5 -87t88.5 -212q0 -84 -39 -157t-122 -121.5t-196 -48.5z" />
    <glyph glyph-name="six.numerator" 
d="M446 541q-72 0 -137.5 26t-119 76.5t-85.5 135t-32 190.5q0 76 17.5 149.5t54 140t87.5 117t122.5 80t154.5 29.5q57 0 111.5 -12.5t80.5 -24.5l25 -12l-66 -222q-76 33 -135 33q-117 0 -155 -106h4q38 12 76 12q151 0 236 -85.5t85 -213.5q0 -126 -88 -219.5t-236 -93.5
zM446 776q31 0 49.5 23.5t18.5 56.5q0 46 -28 82.5t-83 36.5q-30 0 -49.5 -10.5t-19.5 -28.5q0 -71 33.5 -115.5t78.5 -44.5z" />
    <glyph glyph-name="seven.numerator" 
d="M86 561l360 631l33 49v4q-34 -4 -61 -4h-330v223h684v-174l-405 -729h-281z" />
    <glyph glyph-name="eight.numerator" 
d="M57 825q0 114 131 217q-88 74 -88 181q0 84 46.5 145t117 89t154.5 28q83 0 155.5 -29t121 -90.5t48.5 -144.5q0 -90 -100 -205q121 -77 121 -203q0 -86 -51.5 -149.5t-129 -93t-167.5 -29.5q-93 0 -172.5 30.5t-133 96.5t-53.5 157zM506 827q0 18 -10.5 34t-33.5 31
t-44 25.5t-57 27.5q-3 1 -4 1.5l-3 1.5l-4 2q-45 -56 -45 -108q0 -39 32.5 -61.5t76.5 -22.5q37 0 64.5 18t27.5 51zM346 1210q0 -36 31.5 -61t93.5 -53q35 56 35 108q0 29 -27 46.5t-61 17.5q-32 0 -52 -14.5t-20 -43.5z" />
    <glyph glyph-name="nine.numerator" 
d="M59 1174q0 126 88 218.5t236 92.5q72 0 137.5 -26t119.5 -76.5t86 -135t32 -190.5q0 -76 -17.5 -149.5t-54 -140t-87.5 -117t-122.5 -80t-154.5 -29.5q-57 0 -111.5 12.5t-80.5 24.5l-26 12l66 221q76 -33 135 -33q118 0 156 107h-4q-41 -13 -76 -13q-151 0 -236.5 87
t-85.5 215zM315 1171q0 -46 28 -83t83 -37q30 0 50 10.5t20 28.5q0 71 -34 115t-79 44q-31 0 -49.5 -23t-18.5 -55z" />
    <glyph glyph-name="zero.denominator" 
d="M416 -20q-96 0 -165.5 36.5t-108 103t-56.5 148.5t-18 185q0 471 348 471t348 -471q0 -103 -18 -185t-56.5 -148.5t-108 -103t-165.5 -36.5zM416 215q88 0 88 238q0 233 -88 233t-88 -233q0 -238 88 -238z" />
    <glyph glyph-name="one.denominator" 
d="M127 0v221h182v293q0 17 1.5 33.5t3.5 24.5l1 8h-4q-10 -21 -22 -31l-49 -45l-148 162l254 237h221v-682h185v-221h-625z" />
    <glyph glyph-name="two.denominator" 
d="M90 0q-10 58 -10 100q0 75 22.5 137t58.5 103t79.5 74.5t86.5 58t79 46.5t58.5 47t22.5 52q0 33 -27 51.5t-65 18.5q-36 0 -72 -23t-55 -46l-18 -23l-170 145q4 7 12.5 19.5t38.5 44t65.5 55.5t94 44t123.5 20q61 0 118.5 -17.5t106.5 -51.5t79 -92t30 -132
q0 -67 -26.5 -123t-67 -91t-88.5 -65.5t-90 -49.5t-72 -40.5t-35 -40.5h391v-221h-670z" />
    <glyph glyph-name="three.denominator" 
d="M391 -20q-62 0 -118.5 14.5t-93 34.5t-64 40.5t-39.5 34.5l-13 15l125 184q3 -4 8.5 -9.5t23.5 -21t38.5 -27t52 -21t64.5 -9.5q51 0 80.5 24t29.5 62q0 36 -36 55t-91 19h-75l-50 117l127 141q6 8 18.5 19.5t21.5 19.5l10 8v4q-43 -4 -70 -4h-225v223h602v-162
l-170 -186q100 -25 149 -93t49 -165q0 -128 -94.5 -222.5t-259.5 -94.5z" />
    <glyph glyph-name="four.denominator" 
d="M420 0v178h-404v172l351 553h307v-506h108v-219h-108v-178h-254zM260 397h160v185q0 23 2 48.5t4 39.5l2 14h-4q-18 -55 -43 -94l-121 -189v-4z" />
    <glyph glyph-name="five.denominator" 
d="M408 -20q-60 0 -116 13.5t-94 33t-67.5 39.5t-42.5 34l-14 13l129 190q3 -4 8 -9.5t23.5 -21t38.5 -27t51 -21t63 -9.5q45 0 81 25.5t36 68.5q0 45 -35.5 71t-89.5 26q-36 0 -69 -7t-48 -13l-16 -7l-133 49l41 475h544v-223h-336l-4 -47l-6 -33l4 -2q35 8 88 8
q143 0 231.5 -87t88.5 -212q0 -62 -23 -119.5t-66 -104.5t-112.5 -75t-154.5 -28z" />
    <glyph glyph-name="six.denominator" 
d="M446 -20q-72 0 -137.5 26t-119 76.5t-85.5 135t-32 190.5q0 76 17.5 149.5t54 140t87.5 117t122.5 80t154.5 29.5q57 0 111.5 -12.5t80.5 -25.5l25 -12l-66 -221q-76 33 -135 33q-117 0 -155 -106h4q38 12 76 12q151 0 236 -85.5t85 -213.5q0 -126 -88 -219.5t-236 -93.5
zM446 215q31 0 49.5 23.5t18.5 56.5q0 46 -28 82.5t-83 36.5q-30 0 -49.5 -10.5t-19.5 -28.5q0 -71 33.5 -115.5t78.5 -44.5z" />
    <glyph glyph-name="seven.denominator" 
d="M31 0l360 631l33 49v4q-35 -4 -62 -4h-329v223h684v-174l-406 -729h-280z" />
    <glyph glyph-name="eight.denominator" 
d="M57 264q0 114 131 217q-88 74 -88 181q0 84 46.5 145t117 89t154.5 28q83 0 155.5 -29t121 -91t48.5 -145q0 -89 -100 -204q121 -77 121 -203q0 -86 -51.5 -149.5t-129 -93t-167.5 -29.5q-93 0 -172.5 30.5t-133 96.5t-53.5 157zM506 266q0 18 -10.5 34t-33.5 31
t-44 25.5t-57 27.5q-7 3 -11 5q-45 -56 -45 -108q0 -39 32.5 -61.5t76.5 -22.5q37 0 64.5 18t27.5 51zM346 649q0 -36 31.5 -61t93.5 -53q35 56 35 108q0 29 -27 46.5t-61 17.5q-32 0 -52 -14.5t-20 -43.5z" />
    <glyph glyph-name="nine.denominator" 
d="M59 612q0 126 88 219t236 93q72 0 137.5 -26t119.5 -76.5t86 -135t32 -190.5q0 -76 -17.5 -149.5t-54 -140t-87.5 -117t-122.5 -80t-154.5 -29.5q-57 0 -111.5 12t-80.5 24l-26 13l66 221q76 -33 135 -33q118 0 156 107h-4q-41 -13 -76 -13q-151 0 -236.5 86.5
t-85.5 214.5zM315 610q0 -46 28 -83.5t83 -37.5q30 0 50 10.5t20 28.5q0 71 -34 115.5t-79 44.5q-31 0 -49.5 -23t-18.5 -55z" />
    </font>
</defs>
</svg>
